<?xml version="1.0" standalone="no"?>
<!DOCTYPE svg PUBLIC "-//W3C//DTD SVG 1.1//EN" "http://www.w3.org/Graphics/SVG/1.1/DTD/svg11.dtd" >
<svg xmlns="http://www.w3.org/2000/svg" xmlns:xlink="http://www.w3.org/1999/xlink" version="1.1">
<metadata>
Created by FontForge 20170731 at Mon Aug 19 13:15:06 2019
 By Aleksey,,,
Copyright 2018 The Pacifico Project Authors (https://github.com/googlefonts/Pacifico)
</metadata>
<defs>
<font id="Pacifico-Regular" horiz-adv-x="0" >
  <font-face 
    font-family="Pacifico"
    font-weight="400"
    font-stretch="normal"
    units-per-em="1000"
    panose-1="0 0 5 0 0 0 0 0 0 0"
    ascent="800"
    descent="-200"
    x-height="466"
    cap-height="847"
    bbox="-593 -457 1660 1478"
    underline-thickness="50"
    underline-position="-150"
    unicode-range="U+000D-FB02"
  />
<missing-glyph horiz-adv-x="265" 
 />
    <glyph glyph-name="fi" unicode="fi" horiz-adv-x="633" 
d="M754.5 211q7.5 -12 7.5 -33q0 -40 -19 -62q-41 -50 -90.5 -85.5t-99.5 -35.5q-65 0 -94.5 46t-29.5 122q0 39 8.5 96t22.5 112q-100 0 -237 -9q-22 -140 -22 -261q0 -93 10.5 -194.5t31.5 -101.5q10 0 21 35t18 96t7 135q0 81 -9 175q-2 28 9.5 41.5t34.5 13.5
q21 0 31 -11t12 -37q5 -73 5 -174q0 -163 -39.5 -279t-122.5 -116q-71 0 -102 102.5t-31 307.5q0 121 19 259q-7 -1 -18 -1q-31 0 -41.5 11t-10.5 34q0 25 13.5 40t51.5 18q7 1 22 1q27 135 69 245t96 174.5t114 64.5q47 0 72.5 -36.5t25.5 -93.5q0 -201 -162 -342
q122 5 197 5q28 0 46 -10.5t18 -40.5q0 -20 -6.5 -61t-14.5 -82q-18 -85 -18 -112q0 -30 8 -46t27 -16q17 0 43.5 23.5t78.5 80.5q12 14 27 14q13 0 20.5 -12zM312 740q-37 -104 -67 -252q50 35 83.5 87t50 107.5t16.5 102.5q0 59 -22 59q-24 0 -61 -104zM504 551.5
q-21 19.5 -21 54.5t27.5 58.5t68.5 23.5q37 0 60 -18t23 -51q0 -40 -26 -63.5t-69 -23.5q-42 0 -63 19.5z" />
    <glyph glyph-name="fl" unicode="fl" horiz-adv-x="688" 
d="M809.5 211q7.5 -12 7.5 -33q0 -40 -19 -62q-43 -53 -93.5 -87t-114.5 -34q-68 0 -109 49.5t-56 134.5q-34 -9 -72 -9q-33 0 -73 5q14 -63 23 -141t9 -128q0 -108 -35 -165t-92 -57q-72 0 -102.5 102t-30.5 308q0 192 41.5 389.5t114 327t159.5 129.5q47 0 73.5 -42
t26.5 -113q0 -235 -281 -512q-10 -98 -10 -172q0 -103 7 -211.5t23 -108.5q30 0 30 104q0 78 -10.5 151t-28.5 154q-1 13 8.5 33t23.5 35t25 15q13 0 41 -2q32 -2 48 -2q36 0 74 10v3q0 122 31.5 278t93 268t146.5 112q48 0 75.5 -44.5t27.5 -127.5q0 -81 -30 -184
t-87 -197.5t-134 -151.5q4 -71 21 -100.5t50 -29.5q41 0 72 23.5t79 80.5q12 14 27 14q13 0 20.5 -12zM301.5 780q-26.5 -61 -52.5 -161.5t-45 -212.5q80 91 123 189.5t44 184.5q0 61 -25 61q-18 0 -44.5 -61zM617.5 766.5q-27.5 -74.5 -49.5 -188.5t-27 -223
q50 51 85 124.5t51.5 149t16.5 136.5q0 76 -28 76q-21 0 -48.5 -74.5z" />
    <glyph glyph-name="f_f" unicode="ff" horiz-adv-x="684" 
d="M788 238q0 -80 -128 -80q-5 0 -56 3q11 -53 17.5 -120.5t6.5 -134.5q0 -108 -36.5 -165t-93.5 -57q-72 0 -102.5 102t-30.5 308q0 53 3 107q-9 -1 -29 -1q-27 0 -44 -1q10 -74 15.5 -142t5.5 -151q0 -108 -36.5 -165t-93.5 -57q-72 0 -102.5 102t-30.5 308
q0 193 38.5 390.5t107.5 326.5t156 129q45 0 70.5 -37.5t25.5 -107.5q0 -109 -58.5 -242.5t-206.5 -280.5q-9 -88 -9 -171q0 -103 7 -211.5t23 -108.5q15 0 24 25t9 79q0 98 -7.5 173.5t-17.5 121.5q-2 7 -2 21q0 43 34.5 71t91.5 29h24h14q19 166 62.5 312.5t106 236.5
t134.5 90q47 0 73.5 -42t26.5 -113q0 -88 -33 -197t-97.5 -204.5t-153.5 -143.5q-7 -67 -7 -139q0 -103 7 -211.5t23 -108.5q15 0 24 25t9 79q0 78 -8 149t-17 116q-2 8 -2 22q0 41 28 69.5t64 28.5q34 0 62.5 2.5t36.5 3.5q34 4 44 4q28 0 28 -42zM291.5 780
q-24.5 -61 -48.5 -162t-41 -215q76 90 114.5 195.5t38.5 191.5q0 25 -6 38t-15 13q-18 0 -42.5 -61zM610.5 771q-28.5 -70 -56 -183t-45.5 -234q57 45 96.5 120t59 157t19.5 149q0 61 -25 61q-20 0 -48.5 -70z" />
    <glyph glyph-name="f_j" unicode="fj" horiz-adv-x="633" 
d="M754.5 211q7.5 -12 7.5 -33q0 -40 -19 -62q-42 -51 -89.5 -84.5t-107.5 -36.5q-26 -186 -46 -261q-9 -35 -28.5 -52t-43.5 -17q-25 0 -40 12.5t-15 40.5q0 11 3 26q28 124 55.5 315t29.5 312q-101 0 -240 -9q-20 -140 -20 -241q0 -72 10.5 -169t31.5 -97q10 0 21 32
t18 82.5t7 101.5q0 42 -7 115q0 10 -2 30q-2 28 9.5 41.5t34.5 13.5q21 0 31.5 -11t11.5 -37q5 -91 5 -144q0 -79 -16.5 -158t-53 -133t-92.5 -54q-71 0 -102 98t-31 282q0 114 17 239q-41 -3 -54.5 8t-13.5 36t13.5 40t51.5 18l21 1q26 134 68.5 243.5t96.5 175t115 65.5
q47 0 72.5 -36.5t25.5 -93.5q0 -201 -162 -342q123 5 198 5q28 0 46 -10.5t18 -40.5q0 -28 -8.5 -120t-21.5 -197h7q33 0 63 24t77 80q12 14 27 14q13 0 20.5 -12zM311.5 739.5q-37.5 -104.5 -67.5 -251.5q50 34 84 86.5t50.5 108t16.5 102.5q0 59 -22 59
q-24 0 -61.5 -104.5zM492 551.5q-21 19.5 -21 54.5t27.5 58.5t68.5 23.5q37 0 60 -18t23 -51q0 -40 -26 -63.5t-69 -23.5q-42 0 -63 19.5z" />
    <glyph glyph-name="lslash_lslash" unicode="&#x142;&#x142;" horiz-adv-x="654" 
d="M847 993q73 -20 73 -54q0 -22 -17.5 -34.5t-45.5 -12.5q-27 0 -70 5q-99 11 -231 11q-102 0 -169 -11t-137 -30q-51 -14 -70 -14q-24 0 -37 11t-13 28q0 29 57 57t156.5 46t221.5 18q209 0 282 -20zM775.5 211q7.5 -12 7.5 -33q0 -40 -19 -62q-43 -53 -93.5 -87
t-114.5 -34q-95 0 -139 100q-83 -100 -189 -100q-88 0 -130.5 81.5t-42.5 215.5q0 113 31.5 244.5t92.5 223t144 91.5q48 0 76 -40.5t28 -122.5q0 -107 -66.5 -240t-176.5 -265q7 -42 23 -60t42 -18q39 0 69 21t71 70q-6 45 -6 96q0 113 31.5 244.5t92.5 223t144 91.5
q49 0 77.5 -40.5t28.5 -122.5q0 -107 -67 -239.5t-178 -265.5q7 -42 23 -60t42 -18q41 0 72 23.5t79 80.5q12 14 27 14q13 0 20.5 -12zM250 688.5q-29 -66.5 -50 -170.5t-23 -210q153 211 153 377q0 70 -28 70q-23 0 -52 -66.5zM578.5 688.5q-29.5 -66.5 -51 -170.5
t-22.5 -210q155 214 155 377q0 70 -28 70q-24 0 -53.5 -66.5z" />
    <glyph glyph-name="t_t" unicode="tt" horiz-adv-x="706" 
d="M827.5 211q7.5 -12 7.5 -33q0 -40 -19 -62q-43 -53 -94 -87t-117 -34q-122 0 -170 102q-26 -42 -69 -72t-92 -30q-95 0 -139.5 77.5t-44.5 209.5q0 49 5 109h-41q-30 0 -40.5 11t-10.5 35q0 56 45 56h61q19 106 53 192t82 137t104 51q42 0 66 -37t24 -93
q0 -141 -109 -250h91q19 106 53 192t82 137t104 51q42 0 66 -37t24 -93q0 -141 -109 -250h91q16 0 23 -7t7 -26q0 -69 -113 -69h-121q-3 -48 -3 -98q0 -104 24.5 -146t77.5 -42q43 0 76 26t78 78q12 14 27 14q13 0 20.5 -12zM287.5 739.5q-18.5 -37.5 -35 -104t-27.5 -147.5
q59 51 88.5 114.5t29.5 115.5q0 59 -22 59q-15 0 -33.5 -37.5zM598.5 739.5q-18.5 -37.5 -35 -104t-27.5 -147.5q59 51 88.5 114.5t29.5 115.5q0 59 -22 59q-15 0 -33.5 -37.5zM355 133q30 28 51 69q-5 31 -5 80t5 109h-190q-3 -48 -3 -98q0 -101 21.5 -144.5t60.5 -43.5
q30 0 60 28z" />
    <glyph glyph-name=".notdef" horiz-adv-x="265" 
 />
    <glyph glyph-name=".null" 
 />
    <glyph glyph-name="nonmarkingreturn" unicode="&#xd;" horiz-adv-x="265" 
 />
    <glyph glyph-name="NULL" 
 />
    <glyph glyph-name="NULL" 
 />
    <glyph glyph-name="space" unicode=" " horiz-adv-x="265" 
 />
    <glyph glyph-name="exclam" unicode="!" horiz-adv-x="340" 
d="M127 243q-13 9 -13 28l1 8q17 112 46 255t54 247q16 64 87 64q64 0 64 -41q0 -9 -3 -20q-26 -106 -69 -256.5t-82 -261.5q-11 -32 -52 -32q-20 0 -33 9zM55.5 19q-22.5 24 -22.5 63q0 45 25.5 72t71.5 27q44 0 66.5 -21.5t22.5 -63.5q0 -46 -26 -73.5t-71 -27.5
q-44 0 -66.5 24z" />
    <glyph glyph-name="quotedbl" unicode="&#x22;" horiz-adv-x="510" 
d="M127.5 515.5q-16.5 13.5 -13.5 45.5l20 191q10 92 87 92q66 0 66 -62q0 -14 -5 -37l-40 -184q-7 -32 -27 -45.5t-46 -13.5q-25 0 -41.5 13.5zM347.5 515.5q-16.5 13.5 -13.5 45.5l20 191q10 92 87 92q66 0 66 -62q0 -14 -5 -37l-40 -184q-7 -32 -27 -45.5t-46 -13.5
q-25 0 -41.5 13.5z" />
    <glyph glyph-name="numbersign" unicode="#" horiz-adv-x="700" 
d="M549 346l-33 -116h73q52 0 52 -55q0 -28 -13.5 -43.5t-38.5 -15.5h-106l-19 -64q-9 -29 -29.5 -44.5t-43.5 -15.5q-21 0 -36 13.5t-15 37.5q0 10 3 22l15 51h-117l-19 -64q-9 -29 -29.5 -44.5t-43.5 -15.5q-21 0 -36 13.5t-15 37.5q0 10 3 22l15 51h-29q-25 0 -39 15.5
t-14 43.5q0 27 14 41t39 14h62l34 116h-56q-25 0 -39 15.5t-14 43.5q0 27 14 41t39 14h89l19 66q8 29 28.5 43.5t43.5 14.5t38.5 -12.5t15.5 -33.5q0 -9 -3 -18l-17 -60h117l19 66q8 29 28.5 43.5t43.5 14.5t38.5 -12.5t15.5 -33.5q0 -9 -3 -18l-17 -60h46q52 0 52 -55
q0 -28 -13.5 -43.5t-38.5 -15.5h-80zM425 346h-118l-33 -116h117z" />
    <glyph glyph-name="dollar" unicode="$" horiz-adv-x="524" 
d="M393.5 288q32.5 -18 55 -49t22.5 -76q0 -70 -54.5 -115t-145.5 -52l-12 -98q-2 -15 -14.5 -23.5t-28.5 -8.5q-15 0 -24.5 8.5t-7.5 23.5l13 100q-73 10 -115.5 48t-42.5 90q0 35 18 54t43 19t37 -14t17 -44q3 -23 17.5 -38.5t38.5 -21.5l20 150q-46 18 -78.5 37.5t-54 52
t-21.5 80.5q0 74 56 120t142 52l12 100q1 15 13 23t27 8t25.5 -8.5t8.5 -22.5l-14 -103q64 -10 101 -44t37 -85q0 -34 -17.5 -50.5t-43.5 -16.5q-21 0 -34.5 13t-14.5 35q-3 42 -40 55l-22 -162q49 -19 81.5 -37zM205 382.5q14 -15.5 40 -29.5l17 138q-34 -5 -52.5 -24
t-18.5 -48q0 -21 14 -36.5zM336 109.5q19 16.5 19 42.5q0 20 -14.5 35t-42.5 28l-16 -127q35 5 54 21.5z" />
    <glyph glyph-name="percent" unicode="%" horiz-adv-x="896" 
d="M688 646l-363 -618q-19 -32 -51 -32q-21 0 -37 16t-16 41q0 23 16 51l239 408q-53 -20 -106 -22q-19 -61 -63.5 -97.5t-99.5 -36.5q-50 0 -86 24.5t-54 64.5t-18 86q0 64 24.5 113.5t66.5 77.5t94 28q64 0 103 -44.5t45 -108.5q67 4 123.5 33.5t85.5 75.5q27 44 60 44
q21 0 35.5 -17t14.5 -42q0 -23 -13 -45zM255 464q17 18 24 53q-22 20 -34 49.5t-12 58.5q0 16 3 34q-2 1 -8 1q-30 0 -49.5 -30.5t-19.5 -90.5q0 -46 16.5 -69.5t41.5 -23.5q21 0 38 18zM810 365.5q36 -24.5 54 -64.5t18 -86q0 -63 -24.5 -113t-67 -78t-94.5 -28t-87.5 24.5
t-53.5 64.5t-18 86q0 64 24 114t66 77.5t95 27.5q52 0 88 -24.5zM752.5 117q19.5 31 19.5 90q0 46 -16.5 69.5t-39.5 23.5q-30 0 -49.5 -30.5t-19.5 -90.5q0 -48 16.5 -70.5t41.5 -22.5q28 0 47.5 31z" />
    <glyph glyph-name="ampersand" unicode="&#x26;" horiz-adv-x="851" 
d="M653 131l87 -96q23 -24 23 -50q0 -25 -20 -41.5t-53 -16.5q-46 0 -70 28l-84 99q-118 -59 -226 -59q-80 0 -140 25t-92.5 69t-32.5 98q0 73 45.5 136.5t148.5 125.5q-58 106 -58 187q0 72 30 127t83.5 85t122.5 30q88 0 136.5 -50.5t48.5 -138.5q0 -73 -42.5 -137.5
t-150.5 -131.5q64 -87 169 -205q66 59 131 149q11 16 26 22.5t37 6.5q58 0 58 -33q0 -21 -22 -56q-64 -98 -155 -173zM336 737.5q-27 -35.5 -27 -88.5q0 -63 42 -138q78 46 106 89t28 94q0 37 -19 58t-56 21q-47 0 -74 -35.5zM465 139q-106 127 -167 217q-113 -74 -113 -154
q0 -46 35 -71.5t96 -25.5q78 0 149 34z" />
    <glyph glyph-name="quotesingle" unicode="'" horiz-adv-x="290" 
d="M127.5 515.5q-16.5 13.5 -13.5 45.5l20 191q10 92 87 92q66 0 66 -62q0 -14 -5 -37l-40 -184q-7 -32 -27 -45.5t-46 -13.5q-25 0 -41.5 13.5z" />
    <glyph glyph-name="parenleft" unicode="(" horiz-adv-x="613" 
d="M152 -56q-61 77 -61 224q0 110 22 230t64.5 228.5t100.5 182.5q114 145 277 145q47 0 92 -15.5t75 -43.5q17 -16 17 -41t-17.5 -47t-38.5 -22q-10 0 -23 8q-65 45 -119 45q-41 0 -78 -22t-68 -61q-53 -67 -91 -166.5t-58 -208t-20 -202.5q0 -74 10.5 -116.5t33.5 -60.5
t61 -18q72 0 155 83q16 16 33 16q19 0 32.5 -17t13.5 -40q0 -28 -20 -51q-43 -48 -102 -77.5t-115 -29.5q-115 0 -176 77z" />
    <glyph glyph-name="parenright" unicode=")" horiz-adv-x="613" 
d="M10 -117.5q-45 15.5 -75 43.5q-17 16 -17 41t17.5 47t38.5 22q10 0 23 -8q65 -45 119 -45q41 0 78 22t68 61q53 67 91 166.5t58 208t20 202.5q0 74 -10.5 116.5t-33.5 60.5t-61 18q-72 0 -155 -83q-16 -16 -33 -16q-19 0 -32.5 17t-13.5 40q0 28 20 51q43 48 102 77.5
t115 29.5q115 0 176 -77t61 -224q0 -110 -22 -230t-64.5 -228.5t-100.5 -182.5q-114 -145 -277 -145q-47 0 -92 15.5z" />
    <glyph glyph-name="asterisk" unicode="*" horiz-adv-x="520" 
d="M511.5 737.5q-14.5 -14.5 -38.5 -17.5l-92 -13l82 -44q17 -9 26 -22t9 -28q0 -19 -13 -34q-16 -19 -39 -19q-27 0 -47 26l-58 73l3 -93q1 -28 -13.5 -45.5t-39.5 -17.5q-21 0 -36 15t-15 37q0 13 6 29l34 86l-80 -49q-20 -11 -36 -11q-17 0 -29.5 9t-17.5 25q-3 9 -3 19
q0 22 13.5 36t38.5 17l95 13l-85 44q-16 8 -25 21t-9 28q0 20 13 35q14 19 39 19q26 0 47 -27l58 -72l-3 91q-1 29 13.5 46.5t39.5 17.5q22 0 36.5 -15t14.5 -37q0 -12 -6 -29l-35 -86l81 49q21 12 37 12t28.5 -9.5t17.5 -24.5q3 -9 3 -19q0 -21 -14.5 -35.5z" />
    <glyph glyph-name="plus" unicode="+" horiz-adv-x="700" 
d="M619 331q12 -14 12 -34q0 -25 -16.5 -45.5t-44.5 -20.5h-164l-22 -183q-4 -26 -22.5 -40t-42.5 -14q-23 0 -37.5 14t-11.5 40l22 183h-162q-23 0 -35 14.5t-12 34.5q0 25 16.5 45t44.5 20h163l22 183q3 25 21 39t41 14t39 -14t13 -39l-22 -183h163q23 0 35 -14z" />
    <glyph glyph-name="comma" unicode="," horiz-adv-x="257" 
d="M29 -148q-13 10 -13 32q0 9 3 21q11 46 16.5 85t5.5 87q0 50 23.5 77t60.5 27q36 0 54.5 -19.5t18.5 -52.5q0 -35 -21 -93t-51 -113q-20 -37 -31.5 -49t-30.5 -12q-22 0 -35 10z" />
    <glyph glyph-name="hyphen" unicode="-" horiz-adv-x="403" 
d="M71.5 260q-14.5 16 -14.5 45q0 27 13.5 40t39.5 15l205 20q25 2 38.5 -12.5t13.5 -42.5q0 -54 -52 -59l-205 -20q-24 -2 -38.5 14z" />
    <glyph glyph-name="period" unicode="." horiz-adv-x="257" 
d="M50.5 19q-22.5 24 -22.5 63q0 45 25.5 72t71.5 27q44 0 66.5 -21.5t22.5 -63.5q0 -46 -26 -73.5t-71 -27.5q-44 0 -66.5 24z" />
    <glyph glyph-name="slash" unicode="/" horiz-adv-x="509" 
d="M26.5 11.5q-17.5 16.5 -17.5 43.5q0 22 14 48l419 787q12 23 27.5 34t31.5 11q23 0 39.5 -18.5t16.5 -45.5q0 -22 -11 -41l-428 -803q-9 -16 -22.5 -24t-28.5 -8q-23 0 -40.5 16.5z" />
    <glyph glyph-name="zero" unicode="0" horiz-adv-x="543" 
d="M104.5 59q-53.5 64 -53.5 183q0 101 31.5 178.5t88 120.5t131.5 43q98 0 151.5 -64t53.5 -183q0 -101 -31.5 -178.5t-88 -120.5t-131.5 -43q-98 0 -151.5 64zM351 167q31 60 31 163q0 69 -23 105.5t-67 36.5q-54 0 -85 -60.5t-31 -163.5q0 -69 22.5 -105t67.5 -36
q54 0 85 60z" />
    <glyph glyph-name="one" unicode="1" horiz-adv-x="376" 
d="M152 10q-19 15 -19 47l1 11q11 103 26.5 214.5t26.5 171.5l-78 -22l-12 -2q-19 0 -30 15t-11 34l1 9q2 19 12 31t38.5 24t85.5 26l42 10q23 5 38 5q29 0 43.5 -15t14.5 -42q0 -12 -3 -26q-16 -78 -61 -444q-8 -62 -71 -62q-25 0 -44 15z" />
    <glyph glyph-name="two" unicode="2" horiz-adv-x="560" 
d="M508 98q11 -14 11 -35q0 -26 -16.5 -46.5t-44.5 -20.5q-48 0 -143 7q-19 1 -70 4t-80 3q-13 0 -38 -9q-5 -1 -19.5 -5t-24.5 -4q-16 0 -26.5 14.5t-10.5 43.5q0 32 15 49.5t47 31.5q68 30 128.5 76.5t97 100.5t36.5 103q0 39 -17.5 57.5t-55.5 18.5q-44 0 -70.5 -24
t-26.5 -67q0 -59 -59 -59q-28 0 -43.5 16t-15.5 46q0 50 26 92t78 67.5t127 25.5q90 0 141 -45t51 -125q0 -76 -66.5 -159t-191.5 -147l229 4q21 0 32 -14z" />
    <glyph glyph-name="three" unicode="3" horiz-adv-x="520" 
d="M440.5 243q34.5 -35 34.5 -88q0 -51 -31 -87t-83.5 -54.5t-114.5 -18.5q-109 0 -163.5 38t-54.5 95q0 33 16 51.5t43 18.5q23 0 34.5 -11.5t19.5 -39.5q7 -27 29 -41t68 -14q44 0 72.5 16.5t28.5 50.5q0 35 -27 51.5t-84 18.5q-21 1 -31.5 14.5t-10.5 32.5q0 24 8.5 34.5
t29.5 14.5q66 10 95.5 38.5t29.5 68.5q0 55 -76 55q-84 0 -99 -66q-7 -27 -20.5 -38.5t-37.5 -11.5q-27 0 -41.5 15.5t-14.5 41.5q0 40 28 76t79.5 58t120.5 22q96 0 147 -37t51 -110q0 -48 -36.5 -89.5t-94.5 -62.5q51 -7 85.5 -42z" />
    <glyph glyph-name="four" unicode="4" horiz-adv-x="577" 
d="M552 180q0 -36 -20 -50t-63 -14h-21l-4 -53q-3 -46 -19.5 -62t-53.5 -16q-53 0 -53 65q0 11 1 17l5 49q-145 0 -220 1q-22 0 -39 20t-17 52q0 19 7 40q44 128 132 291q19 35 38.5 49.5t60.5 14.5q22 0 33.5 -10t11.5 -26q0 -17 -10 -34q-98 -179 -138 -289h154
q12 93 33 177q8 31 26 47.5t50 16.5q51 0 51 -44q0 -13 -2 -20q-18 -85 -32 -177h36q53 0 53 -45z" />
    <glyph glyph-name="five" unicode="5" horiz-adv-x="518" 
d="M242 476q-13 -44 -29 -120q129 -7 196 -53t67 -125q0 -52 -26.5 -93.5t-77.5 -65.5t-120 -24q-93 0 -149.5 36t-56.5 97q0 33 15.5 51.5t43.5 18.5q22 0 34 -11.5t20 -39.5q17 -61 103 -61q37 0 61 22.5t24 55.5q0 88 -187 94q-40 1 -57.5 13t-17.5 37q0 12 3 25l11 48
q6 29 20 89h-2q-20 0 -32 9.5t-12 26.5q0 49 48 64q45 14 162 14q84 0 122 -2.5t59 -7.5q20 -5 28 -13.5t8 -25.5q0 -34 -13.5 -48.5t-45.5 -14.5q-16 0 -62 2q-84 3 -95 3q-29 0 -42 -1z" />
    <glyph glyph-name="six" unicode="6" horiz-adv-x="541" 
d="M225.5 439.5q-36.5 -45.5 -45.5 -135.5q26 30 59 42.5t73 12.5q50 0 89.5 -21t61.5 -58.5t22 -83.5q0 -57 -26.5 -102.5t-77 -72t-119.5 -26.5q-103 0 -157.5 64.5t-54.5 178.5q0 102 34.5 180.5t98 122t148.5 43.5q77 0 126.5 -35.5t56.5 -93.5l1 -11q0 -26 -16.5 -40.5
t-46.5 -14.5q-22 0 -35.5 11.5t-23.5 39.5q-8 21 -26.5 33t-46.5 12q-58 0 -94.5 -45.5zM215 235q-24 -24 -24 -64q0 -36 20 -57t56 -21q40 0 64.5 25.5t24.5 66.5q0 34 -20 54t-54 20q-43 0 -67 -24z" />
    <glyph glyph-name="seven" unicode="7" horiz-adv-x="497" 
d="M507.5 567.5q10.5 -14.5 10.5 -43.5q0 -27 -11 -40.5t-27.5 -24.5t-23.5 -16q-106 -73 -147.5 -167t-50.5 -201q-4 -42 -22.5 -61t-46.5 -19t-47 19.5t-19 68.5q0 57 21.5 125.5t69 136.5t120.5 121l-246 -4q-21 0 -32 14t-11 35q0 26 16.5 46.5t44.5 20.5q49 0 143 -7
q19 -1 70 -4t80 -3q13 0 38 9q5 1 19.5 5t24.5 4q16 0 26.5 -14.5z" />
    <glyph glyph-name="eight" unicode="8" horiz-adv-x="512" 
d="M476 163q0 -50 -28.5 -88t-80.5 -59t-121 -21q-97 0 -151.5 38t-54.5 106q0 43 26 79t84 67q-36 24 -54.5 57.5t-18.5 70.5q0 80 60 125.5t163 45.5q85 0 136.5 -37t51.5 -100q0 -46 -26 -82.5t-84 -67.5q98 -50 98 -134zM225 469.5q-25 -17.5 -25 -50.5q0 -45 76 -80
q51 25 71.5 47t20.5 46q0 55 -76 55q-42 0 -67 -17.5zM325 108q27 16 27 44q0 22 -23.5 42t-86.5 48q-46 -21 -64 -43t-18 -48q0 -28 24.5 -43.5t66.5 -15.5q47 0 74 16z" />
    <glyph glyph-name="nine" unicode="9" horiz-adv-x="541" 
d="M450.5 519.5q54.5 -64.5 54.5 -178.5q0 -102 -34.5 -180.5t-98 -122t-148.5 -43.5q-77 0 -126.5 35.5t-56.5 93.5l-1 11q0 26 16.5 40.5t46.5 14.5q22 0 35.5 -11.5t23.5 -39.5q8 -21 26.5 -33t46.5 -12q58 0 94.5 45.5t45.5 135.5q-26 -30 -59 -42.5t-73 -12.5
q-50 0 -89.5 21t-61.5 58.5t-22 83.5q0 57 26.5 102.5t77 72t119.5 26.5q103 0 157.5 -64.5zM340 344q24 24 24 64q0 36 -20 57t-56 21q-40 0 -64.5 -25.5t-24.5 -66.5q0 -34 20 -54t54 -20q43 0 67 24z" />
    <glyph glyph-name="colon" unicode=":" horiz-adv-x="257" 
d="M50.5 19q-22.5 24 -22.5 63q0 45 25.5 72t71.5 27q44 0 66.5 -21.5t22.5 -63.5q0 -46 -26 -73.5t-71 -27.5q-44 0 -66.5 24zM85.5 304q-22.5 24 -22.5 63q0 45 25.5 72t71.5 27q44 0 66.5 -21.5t22.5 -63.5q0 -46 -26 -73.5t-71 -27.5q-44 0 -66.5 24z" />
    <glyph glyph-name="semicolon" unicode=";" horiz-adv-x="257" 
d="M29 -148q-13 10 -13 32q0 9 3 21q11 46 16.5 85t5.5 87q0 50 23.5 77t60.5 27q36 0 54.5 -19.5t18.5 -52.5q0 -35 -21 -93t-51 -113q-20 -37 -31.5 -49t-30.5 -12q-22 0 -35 10zM85.5 304q-22.5 24 -22.5 63q0 45 25.5 72t71.5 27q44 0 66.5 -21.5t22.5 -63.5
q0 -46 -26 -73.5t-71 -27.5q-44 0 -66.5 24z" />
    <glyph glyph-name="less" unicode="&#x3c;" horiz-adv-x="700" 
d="M117 224q-17 6 -26 21t-9 34q0 24 14 46.5t37 30.5l446 155q12 4 24 4q21 0 33 -14t12 -34q0 -19 -11.5 -35.5t-34.5 -24.5l-350 -118l320 -119q17 -6 26 -19t9 -28q0 -23 -16.5 -41.5t-41.5 -18.5q-11 0 -24 5z" />
    <glyph glyph-name="equal" unicode="=" horiz-adv-x="700" 
d="M109 360.5q-12 14.5 -12 34.5q0 25 16.5 45t44.5 20h440q23 0 35 -14t12 -34q0 -25 -16.5 -45.5t-44.5 -20.5h-440q-23 0 -35 14.5zM81 130.5q-12 14.5 -12 34.5q0 25 16.5 45t44.5 20h440q23 0 35 -14t12 -34q0 -25 -16.5 -45.5t-44.5 -20.5h-440q-23 0 -35 14.5z" />
    <glyph glyph-name="greater" unicode="&#x3e;" horiz-adv-x="700" 
d="M112 64q-21 0 -33 14t-12 34q0 19 11.5 35.5t34.5 24.5l350 118l-320 119q-17 6 -26 19t-9 28q0 23 16.5 41.5t41.5 18.5q11 0 24 -5l408 -156q17 -6 26 -21t9 -34q0 -24 -14 -46.5t-37 -30.5l-446 -155q-12 -4 -24 -4z" />
    <glyph glyph-name="question" unicode="?" horiz-adv-x="476" 
d="M162 244.5q-11 10.5 -10 34.5q4 63 30 112t87 110q57 56 82 95t25 81q0 69 -77 69q-46 0 -70 -20.5t-24 -51.5l1 -41q0 -17 -12.5 -29.5t-39.5 -12.5q-31 0 -47.5 18.5t-16.5 52.5q0 50 24.5 91.5t74.5 66.5t123 25q99 0 153.5 -42.5t54.5 -122.5q0 -63 -32 -114
t-96 -106q-54 -46 -82 -75t-40.5 -50.5t-20.5 -49.5q-7 -26 -22.5 -38.5t-35.5 -12.5q-18 0 -29 10.5zM86.5 19q-22.5 24 -22.5 63q0 45 25.5 72t71.5 27q44 0 66.5 -21.5t22.5 -63.5q0 -46 -26 -73.5t-71 -27.5q-44 0 -66.5 24z" />
    <glyph glyph-name="at" unicode="@" horiz-adv-x="1015" 
d="M250.5 -231.5q-104.5 56.5 -158 153.5t-53.5 217q0 156 64.5 293t193 222t309.5 85q111 0 196 -41t133 -121.5t48 -195.5t-39.5 -203t-103 -135.5t-132.5 -47.5q-102 0 -132 84q-19 -39 -51.5 -61.5t-73.5 -22.5q-67 0 -104.5 44.5t-37.5 118.5q0 80 37 151.5t98.5 115
t130.5 43.5q22 0 29.5 -8.5t12.5 -30.5q21 4 44 4q49 0 49 -35q0 -21 -15 -100q-23 -115 -23 -160q0 -17 11 -28t36 -11q33 0 68 37.5t58.5 103t23.5 143.5q0 120 -73.5 183t-201.5 63q-137 0 -233 -67t-144 -177.5t-48 -240.5q0 -147 84.5 -235.5t254.5 -88.5
q78 0 154.5 20.5t158.5 63.5q13 7 25 7q20 0 33 -15.5t13 -37.5q0 -16 -8 -30.5t-25 -24.5q-72 -44 -166.5 -67.5t-188.5 -23.5q-149 0 -253.5 56.5zM523 122q20 26 29 69l37 184q-42 -1 -77.5 -31.5t-56.5 -80.5t-21 -106q0 -31 12.5 -46t34.5 -15t42 26z" />
    <glyph glyph-name="A" unicode="A" horiz-adv-x="786" 
d="M175.5 29q-55.5 34 -87.5 98.5t-32 152.5q0 152 65 281.5t192 208t305 78.5q46 0 98.5 -7t95.5 -21q28 -8 28 -40q0 -26 -19.5 -49t-45.5 -23q-8 0 -12 1q-52 12 -89 17.5t-78 5.5q-127 0 -216 -61.5t-133 -162.5t-44 -218q0 -85 33.5 -131.5t87.5 -46.5q61 0 107 50
t84 162t75 304q6 28 24 38t48 10q71 0 71 -46q0 -8 -3 -20q-26 -97 -47.5 -214.5t-21.5 -178.5q0 -54 16 -78.5t49 -24.5q32 0 61 21.5t73 73.5q12 14 27 14q13 0 20.5 -12t7.5 -33q0 -39 -19 -62q-49 -59 -96 -90t-115 -31q-70 0 -113 40.5t-54 114.5q-74 -155 -218 -155
q-69 0 -124.5 34z" />
    <glyph glyph-name="B" unicode="B" horiz-adv-x="827" 
d="M808 493.5q-60 -61.5 -175 -88.5q62 -17 94 -55.5t32 -88.5q0 -79 -49.5 -137t-144.5 -89.5t-229 -31.5q-50 0 -80 3q-1 -28 -24 -42t-59 -14t-49.5 16t-11.5 47q9 140 35 293.5t66 296.5q7 25 28 35t55 10q61 0 61 -34q0 -14 -6 -32q-26 -78 -52 -211.5t-37 -254.5
q48 -4 78 -4q140 0 205.5 40.5t65.5 103.5q0 44 -37.5 74t-125.5 33q-20 1 -28 10t-8 29q0 29 12 47t44 19q71 2 128.5 21t90.5 53.5t33 80.5q0 58 -57 91.5t-175 33.5q-107 0 -207 -27.5t-170 -69.5q-32 -19 -54 -19q-18 0 -27.5 12.5t-9.5 31.5q0 25 10.5 43t50.5 41
q84 48 197 75t231 27q181 0 270 -61t89 -161q0 -85 -60 -146.5z" />
    <glyph glyph-name="C" unicode="C" horiz-adv-x="686" 
d="M246 38.5q-88 43.5 -135 123.5t-47 186q0 147 55.5 261t150.5 176.5t211 62.5q108 0 164 -55.5t56 -146.5q0 -61 -21.5 -98t-61.5 -37q-28 0 -44 13t-16 38q0 9 4 33q6 30 6 48q0 91 -97 91q-66 0 -126 -43t-97 -126.5t-37 -198.5q0 -120 67 -185.5t198 -65.5
q65 0 131.5 16.5t147.5 50.5q15 6 25 6q16 0 24 -12t8 -31q0 -61 -66 -90q-71 -31 -147.5 -45.5t-145.5 -14.5q-119 0 -207 43.5z" />
    <glyph glyph-name="D" unicode="D" horiz-adv-x="836" 
d="M177 5q-40 5 -55 21t-13 52q7 99 33 244.5t63 280.5q7 25 28 35t55 10q61 0 61 -34q0 -14 -6 -32q-26 -80 -52 -214.5t-37 -256.5q30 -3 68 -3q175 0 261.5 106t86.5 283q0 119 -68 184t-192 65q-80 0 -158.5 -25t-141.5 -66q-13 -9 -28 -9q-17 0 -27 14.5t-10 35.5
q0 24 8 39.5t27 28.5q69 47 162 71.5t179 24.5q122 0 211 -42.5t137 -124.5t48 -198q0 -151 -60 -263.5t-175 -174.5t-274 -62q-58 0 -131 10z" />
    <glyph glyph-name="E" unicode="E" horiz-adv-x="686" 
d="M780 188q16 0 24 -12t8 -31q0 -30 -14.5 -51t-49.5 -38q-59 -28 -153 -44.5t-185 -16.5q-126 0 -211 28.5t-126.5 78.5t-41.5 113q0 86 55.5 146.5t163.5 87.5q-59 17 -90.5 60t-31.5 96q0 72 45.5 127.5t122.5 85.5t169 30q124 0 186 -53.5t62 -138.5q0 -59 -21.5 -95.5
t-61.5 -36.5q-28 0 -44 12.5t-16 37.5q0 17 5 37q5 33 5 45q0 36 -27 58.5t-90 22.5q-85 0 -136 -36t-51 -97q0 -47 38.5 -77.5t125.5 -33.5q22 -1 31 -10t9 -30q0 -66 -60 -67q-83 -2 -137.5 -23t-79 -53.5t-24.5 -69.5q0 -62 58 -93.5t184 -31.5q83 0 175.5 19.5
t158.5 47.5q15 6 25 6z" />
    <glyph glyph-name="F" unicode="F" horiz-adv-x="712" 
d="M925.5 812q10.5 -13 10.5 -34q0 -69 -74 -64l-35 3q-59 5 -117.5 8t-122.5 3h-45q-12 -148 -25 -270l172 3q37 0 49.5 -13t12.5 -35q0 -34 -20 -53.5t-57 -19.5h-171l-6 -43q-21 -165 -89.5 -235t-188.5 -70q-68 0 -125 29.5t-84 71.5q-11 17 -11 41t11.5 42t28.5 18
q12 0 23.5 -8t29.5 -31q48 -63 119 -63q57 0 95.5 46.5t49.5 146.5l6 55h-48q-23 0 -39.5 13t-16.5 37q0 31 16 47.5t47 16.5q28 0 55 1q12 110 26 267q-108 -10 -152 -35t-44 -74q0 -34 20 -65q6 -9 6 -18q0 -18 -20 -31.5t-45 -13.5q-27 0 -46 16q-12 10 -23 41t-11 69
q0 124 127.5 180t372.5 56q170 0 300 -18q28 -4 38.5 -17z" />
    <glyph glyph-name="G" unicode="G" horiz-adv-x="811" 
d="M912.5 208.5q7.5 -12.5 7.5 -31.5q0 -23 -7 -36t-22 -23q-59 -39 -188 -128q-39 -207 -101 -326t-157 -119q-51 0 -83 31.5t-32 82.5q0 47 21 95t78.5 111t162.5 144l3 19q-79 -33 -155 -33q-112 0 -197 43.5t-132 123.5t-47 186q0 148 56 261.5t154.5 176t220.5 62.5
q117 0 175.5 -54.5t58.5 -144.5q0 -59 -21.5 -94.5t-61.5 -35.5q-27 0 -43.5 13t-16.5 36q0 10 4 34q6 28 6 44q0 42 -25.5 65t-85.5 23q-73 0 -135.5 -42t-100.5 -125.5t-38 -200.5q0 -120 65.5 -185.5t189.5 -65.5q69 0 144 31l14 122h-102q-28 0 -43 13.5t-15 44.5
q0 28 15 44t40 16h187q22 0 36.5 -14.5t11.5 -41.5q-3 -32 -20 -145l-11 -76q80 60 146 104q13 8 23 8q13 0 20.5 -12.5zM513 -299q31 59 58 190q-76 -65 -109.5 -117.5t-33.5 -92.5q0 -39 28 -39q26 0 57 59z" />
    <glyph glyph-name="H" unicode="H" horiz-adv-x="873" 
d="M994.5 211q7.5 -12 7.5 -33q0 -39 -19 -62q-99 -121 -211 -121q-97 0 -155 75t-58 215q0 34 3 68q-66 -12 -144 -18q-52 -4 -71 -5q-20 -102 -56 -250q-21 -87 -80 -87q-64 0 -64 58q0 13 5 36q34 137 54 232l-48 -2q-33 0 -48 11.5t-15 37.5q0 33 19 48.5t63 17.5l53 2
q26 141 26 215q0 47 -14 64t-37 17q-70 0 -158 -117q-13 -17 -29 -17q-14 0 -24 13t-10 33q0 31 25 66q44 61 111 100.5t136 39.5q65 0 100.5 -44.5t35.5 -138.5q0 -83 -24 -225l98 5q63 3 108 10q18 110 55 206t92 156t123 60q50 0 79 -39.5t29 -103.5q0 -248 -253 -344
q-3 -40 -3 -83q0 -105 26 -149t73 -44q41 0 75 21.5t77 73.5q12 14 27 14q13 0 20.5 -12zM792.5 750q-24.5 -40 -46.5 -109t-35 -151q80 33 118 94t38 157q0 23 -8 36t-20 13q-22 0 -46.5 -40z" />
    <glyph glyph-name="I" unicode="I" horiz-adv-x="495" 
d="M538 829.5q18 -12.5 18 -30.5q0 -32 -20 -51.5t-57 -19.5q-58 0 -88 -1l-18 -108q-18 -107 -22 -131l-21 -131q-22 -147 -35 -246q21 1 57 1q53 0 72 -14t19 -42q0 -26 -20.5 -44t-57.5 -18q-25 0 -79 2q-50 2 -66 2q-63 0 -138 -11q-33 -5 -47 -5q-22 0 -37 12t-15 35
q0 36 32 56t90 21l47 1l3 22q24 160 35 226l22 131q20 116 36 239l-84 -1q-36 0 -49.5 11.5t-13.5 32.5q0 68 98 73q46 2 112 2l183 -1q26 0 44 -12.5z" />
    <glyph glyph-name="J" unicode="J" horiz-adv-x="743" 
d="M753.5 722q-12.5 -15 -40.5 -15q-2 -21 -9 -73q-10 -70 -11 -78q-89 -663 -371 -663q-83 0 -129.5 47t-46.5 118q0 127 108 224.5t284 161.5q11 71 17 127l18 151q-60 6 -112 6q-139 0 -205 -27t-66 -88q0 -30 20 -65q6 -10 6 -21q0 -21 -21.5 -37.5t-46.5 -16.5
q-32 0 -49 27q-28 46 -28 107q0 240 420 240q122 0 218 -24q57 -14 57 -56q0 -30 -12.5 -45zM433 74q49 74 86 259q-244 -107 -244 -262q0 -34 16 -52.5t44 -18.5q49 0 98 74z" />
    <glyph glyph-name="K" unicode="K" horiz-adv-x="937" 
d="M1058.5 211q7.5 -12 7.5 -33q0 -39 -19 -62q-48 -58 -97 -89.5t-116 -31.5q-74 0 -121 43.5t-88 135.5q-30 66 -49.5 98.5t-38.5 46t-48 16.5l-11 -74q-21 -143 -81.5 -206t-166.5 -63q-69 0 -122.5 33.5t-74.5 85.5q-7 18 -7 39q0 30 14 52t36 22q13 0 22 -6.5t17 -22.5
q31 -58 54.5 -81t58.5 -23q40 0 68.5 36.5t40.5 112.5l14 95h-16q-23 0 -36 13t-13 36q0 26 13.5 41.5t33.5 15.5h33q7 49 10 68l31 225q-26 3 -49 3q-85 0 -129 -29.5t-44 -84.5q0 -25 5.5 -40.5t14.5 -34.5q4 -8 4 -18q0 -22 -20.5 -38.5t-45.5 -16.5q-32 0 -47 28
q-30 53 -30 114q0 63 34.5 115t104.5 83.5t173 31.5q45 0 82.5 -5t82.5 -19q49 -15 49 -56q0 -55 -47 -55l-39 -269q117 12 190.5 100.5t122.5 240.5q9 28 30.5 43t54.5 15q28 0 43.5 -12.5t15.5 -35.5q0 -7 -4 -23q-50 -165 -143 -262t-203 -129q38 -9 62.5 -27t41.5 -44.5
t39 -73.5q31 -66 58 -93.5t63 -27.5q32 0 61 21.5t73 73.5q12 14 27 14q13 0 20.5 -12z" />
    <glyph glyph-name="L" unicode="L" horiz-adv-x="673" 
d="M794.5 211q7.5 -12 7.5 -33q0 -39 -19 -62q-56 -67 -108.5 -94t-126.5 -27q-52 0 -96 13t-107 39q-57 25 -110 41q-51 -93 -153 -93q-56 0 -89.5 25.5t-33.5 65.5q0 49 47 81.5t125 32.5h13l18 291q6 100 36 165t83 111q46 40 105 60.5t125 20.5q108 0 166 -56t58 -146
q0 -61 -22 -98.5t-61 -37.5q-28 0 -44 13.5t-16 38.5q0 9 4 33q6 28 6 50q0 42 -24.5 66.5t-74.5 24.5q-88 0 -136 -57.5t-61 -180.5l-23 -227q-5 -48 -13 -83q64 -11 160 -35q56 -14 86 -20t53 -6q58 0 99.5 19.5t78.5 62.5q12 14 27 14q13 0 20.5 -12z" />
    <glyph glyph-name="M" unicode="M" horiz-adv-x="1232" 
d="M179 11.5q-16 16.5 -16 62.5q0 31 6.5 79.5t21.5 133.5q26 157 41 272q9 72 9 120q0 45 -33 45q-26 0 -62.5 -26.5t-80.5 -84.5q-14 -19 -31 -19q-14 0 -24.5 13.5t-10.5 30.5q0 16 6.5 32.5t21.5 37.5q48 67 107 103.5t118 36.5q55 0 84.5 -35t29.5 -102q0 -27 -5 -63.5
t-9 -59.5t-6 -32q57 163 128 227.5t156 64.5q65 0 102.5 -46t37.5 -130q0 -33 -9 -82q50 138 117 198t154 60q70 0 107.5 -45t37.5 -126q0 -44 -13 -107l-61 -286q-10 -50 -10 -86q0 -42 19.5 -63t54.5 -21q33 0 64.5 22t74.5 73q12 14 27 14q13 0 20.5 -12t7.5 -33
q0 -39 -19 -62q-52 -63 -103 -92t-107 -29q-85 0 -133 50.5t-48 135.5q0 59 24 171l40 183q2 9 7 32t8 43.5t3 40.5q0 35 -13.5 52.5t-38.5 17.5q-47 0 -98.5 -60.5t-98 -200.5t-75.5 -364q-7 -60 -24.5 -80.5t-56.5 -20.5q-34 0 -49.5 16t-15.5 60q0 41 11 107.5t28 156.5
q46 242 46 312q0 38 -14.5 56t-43.5 18q-49 0 -101 -55.5t-101.5 -197t-82.5 -382.5q-7 -51 -20.5 -71t-52.5 -20q-37 0 -53 16.5z" />
    <glyph glyph-name="N" unicode="N" horiz-adv-x="884" 
d="M179 11.5q-16 16.5 -16 62.5q0 31 6 75t21 133q2 12 16 97.5t25 179.5q10 80 10 120q0 45 -33 45q-25 0 -62.5 -26.5t-80.5 -84.5q-14 -19 -31 -19q-14 0 -24.5 13.5t-10.5 30.5t6 32.5t22 37.5q49 67 109 103.5t126 36.5q55 0 82.5 -34t27.5 -99q0 -58 -16 -168
q50 148 127 224.5t181 76.5q82 0 123.5 -46.5t41.5 -124.5q0 -44 -13 -107l-61 -286q-10 -50 -10 -86q0 -42 19.5 -63t54.5 -21q33 0 64.5 22t74.5 73q12 14 27 14q13 0 20.5 -12t7.5 -33q0 -39 -19 -62q-52 -63 -103 -92t-107 -29q-85 0 -133 50.5t-48 135.5q0 33 5.5 72
t18.5 99l40 183q2 9 7 32t8 43.5t3 40.5q0 32 -18 51t-51 19q-60 0 -120 -64t-111 -206.5t-80 -364.5q-7 -51 -20.5 -71t-52.5 -20q-37 0 -53 16.5z" />
    <glyph glyph-name="O" unicode="O" horiz-adv-x="816" 
d="M219.5 35q-71.5 40 -113.5 117.5t-42 185.5q0 152 55.5 268t151 179t211.5 63q89 0 160.5 -40t113.5 -117.5t42 -185.5q0 -152 -55.5 -268t-151 -179t-211.5 -63q-89 0 -160.5 40zM527.5 161q59.5 48 91.5 133.5t32 193.5q0 119 -50 180.5t-129 61.5q-77 0 -136 -47.5
t-92 -133t-33 -194.5q0 -119 50 -180.5t129 -61.5q78 0 137.5 48z" />
    <glyph glyph-name="P" unicode="P" horiz-adv-x="805" 
d="M779 440q-44 -71 -128 -116t-200 -53l-43 -241q-25 -139 -136 -139q-61 0 -112.5 36t-82.5 110t-31 182q0 203 65.5 344.5t176 212t243.5 70.5q94 0 159.5 -33t99 -89.5t33.5 -127.5q0 -85 -44 -156zM674 587q0 66 -43.5 107.5t-134.5 41.5q-103 0 -179.5 -65
t-118 -180.5t-41.5 -263.5q0 -62 12.5 -110t32 -74.5t37.5 -26.5q25 0 38 69l33 189q-39 6 -34 5q-30 5 -39 18.5t-9 34.5q0 22 12.5 35t34.5 13q10 0 15 -1q24 -4 37 -5q13 78 37 209q6 34 27.5 48.5t50.5 14.5q33 0 47.5 -12.5t14.5 -39.5q0 -16 -2 -26l-33 -194
q205 26 205 213z" />
    <glyph glyph-name="Q" unicode="Q" horiz-adv-x="816" 
d="M875.5 -106.5q5.5 -10.5 5.5 -27.5q0 -32 -17 -63q-34 -62 -89.5 -95.5t-113.5 -33.5q-59 0 -99 18.5t-68 55t-54 96.5q-27 62 -44.5 92.5t-36.5 44.5t-49 20q-111 22 -178.5 110t-67.5 227q0 152 55.5 268t151 179t211.5 63q89 0 160.5 -40t113.5 -117.5t42 -185.5
q0 -126 -38 -227t-105 -168t-154 -95q25 -14 43.5 -41t39.5 -78q23 -56 49.5 -80t65.5 -24q33 0 64 22.5t70 73.5q12 16 27 16q10 0 15.5 -10.5zM527.5 161q59.5 48 91.5 133.5t32 193.5q0 119 -50 180.5t-129 61.5q-76 0 -135.5 -48.5t-92.5 -133.5t-33 -193
q0 -119 50 -180.5t129 -61.5q78 0 137.5 48z" />
    <glyph glyph-name="R" unicode="R" horiz-adv-x="880" 
d="M1001.5 211q7.5 -12 7.5 -33q0 -39 -19 -62q-48 -58 -97 -89.5t-116 -31.5q-65 0 -110.5 35t-86.5 120q-33 68 -52 100.5t-37.5 46.5t-45.5 17q-4 -21 -23 -132q-8 -50 -10 -61q-10 -61 -40 -93.5t-91 -32.5q-67 0 -118.5 39.5t-79.5 110t-28 160.5q0 168 58.5 290
t164 186.5t243.5 64.5q96 0 161 -29t96.5 -80t31.5 -115q0 -56 -26.5 -109.5t-79.5 -94.5t-129 -61q48 -13 74 -42t52 -85q28 -60 55.5 -88t63.5 -28q32 0 61 21.5t73 73.5q12 14 27 14q13 0 20.5 -12zM307 315q-34 0 -46.5 16t-12.5 36q0 24 15.5 38t35.5 14h25
q16 98 30 169q13 65 84 65q57 0 57 -51q0 -11 -1 -17l-30 -166q54 3 98.5 26t71 64t26.5 93q0 63 -43 99t-126 36q-98 0 -171.5 -48.5t-114.5 -144t-41 -232.5q0 -64 13 -110t32 -69t36 -23q13 0 21.5 13t13.5 42z" />
    <glyph glyph-name="S" unicode="S" horiz-adv-x="693" 
d="M114 42.5q-80 50.5 -80 154.5q0 55 19 84t56 29q27 0 44 -14t17 -36q0 -20 -3 -35q0 -4 -1.5 -14t-1.5 -21q0 -45 45.5 -67t127.5 -22q85 0 133 30.5t48 85.5q0 34 -22 58.5t-55 41t-93 40.5q-77 30 -125.5 57t-83 73.5t-34.5 115.5q0 72 38.5 128t111 87t170.5 31
q73 0 134 -21.5t97.5 -65.5t36.5 -108q0 -63 -19 -95t-56 -32q-26 0 -43.5 16t-17.5 38q0 19 3 35q3 30 3 38q0 42 -41 64t-102 22q-86 0 -131.5 -31.5t-45.5 -88.5q0 -38 23.5 -65t58.5 -45t98 -43q76 -31 122 -56t78.5 -68t32.5 -106q0 -118 -89.5 -181.5t-239.5 -63.5
q-133 0 -213 50.5z" />
    <glyph glyph-name="T" unicode="T" horiz-adv-x="697" 
d="M887.5 809q15.5 -15 15.5 -35q0 -33 -18.5 -48t-58.5 -12q-90 7 -140.5 9.5t-132.5 3.5q-37 -184 -68 -370q-11 -68 -23 -157.5t-16 -144.5q-2 -29 -24 -44.5t-53 -15.5q-33 0 -51 16t-18 42q0 24 7.5 79.5t17.5 116.5q11 61 17 106q11 76 25 151t28 142q3 15 7 34.5
t9 43.5q-98 -3 -154 -16t-79.5 -36.5t-23.5 -60.5q0 -34 20 -65q4 -7 4 -15q0 -19 -22.5 -35.5t-46.5 -16.5q-17 0 -28 10q-20 17 -33 48.5t-13 71.5q0 85 55.5 136.5t169 75.5t291.5 24q110 0 175.5 -4t114.5 -13q31 -6 46.5 -21z" />
    <glyph glyph-name="U" unicode="U" horiz-adv-x="890" 
d="M205 41.5q-43 46.5 -43 124.5q0 44 13 107l62 286q2 8 9.5 44t7.5 78q0 24 -9.5 36t-25.5 12q-30 0 -70 -28.5t-84 -87.5q-14 -19 -31 -19q-14 0 -24.5 13.5t-10.5 30.5q0 31 28 70q102 140 239 140q61 0 95.5 -37t34.5 -109q0 -51 -7 -94t-24 -117l-41 -183
q-2 -9 -7 -32t-8 -43.5t-3 -40.5q0 -32 18 -51t51 -19q60 0 121.5 64t114 206.5t81.5 364.5q7 51 20.5 71t52.5 20q35 0 52 -21t17 -68q0 -27 -6.5 -71t-19.5 -123q-27 -153 -43 -281q-8 -58 -8 -86q0 -41 18.5 -62.5t49.5 -21.5q33 0 64.5 22t74.5 73q12 14 27 14
q13 0 20.5 -12t7.5 -33q0 -39 -19 -62q-52 -63 -103 -92t-107 -29q-83 0 -127 42.5t-44 110.5q0 38 16 148q-50 -147 -126.5 -224t-176.5 -77q-84 0 -127 46.5z" />
    <glyph glyph-name="V" unicode="V" horiz-adv-x="763" 
d="M897.5 422q10.5 -10 10.5 -26q0 -26 -15.5 -46t-48.5 -21q-80 -2 -142 12q-71 -149 -171.5 -247.5t-201.5 -98.5q-104 0 -155 121t-51 327q0 176 25 316q9 52 25.5 70.5t56.5 18.5q66 0 66 -57q0 -6 -2 -22q-30 -180 -30 -326q0 -153 25.5 -232.5t76.5 -79.5q52 0 113 72
t112 181q-61 38 -92 98.5t-31 139.5t24.5 133.5t67 81.5t94.5 27q64 0 101.5 -46t37.5 -126q0 -115 -50 -251q53 -9 121 -9q23 0 33.5 -10zM632 484q39 112 39 185q0 42 -11 61.5t-30 19.5q-27 0 -44 -31.5t-17 -89.5q0 -98 63 -145z" />
    <glyph glyph-name="W" unicode="W" horiz-adv-x="1217" 
d="M1351.5 422q10.5 -10 10.5 -26q0 -26 -15.5 -46t-48.5 -21q-79 -1 -142 12q-70 -149 -168.5 -247.5t-194.5 -98.5q-88 0 -132 93.5t-50 250.5q-60 -174 -135.5 -259t-160.5 -85q-96 0 -145 119.5t-49 321.5q0 147 26 323q7 50 25.5 69.5t58.5 19.5q30 0 46.5 -13
t16.5 -48q0 -7 -2 -27q-30 -205 -30 -349q0 -134 23 -207t62 -73q35 0 84.5 73.5t98.5 218t83 344.5q8 46 29.5 63.5t58.5 17.5q31 0 45.5 -13.5t14.5 -40.5q0 -16 -2 -25q-28 -163 -28 -326q0 -111 7.5 -177t29 -100.5t62.5 -34.5q48 0 107 72.5t108 180.5q-61 38 -92 98.5
t-31 139.5t24.5 133.5t67 81.5t94.5 27q64 0 101.5 -46t37.5 -126q0 -113 -49 -251q51 -9 120 -9q23 0 33.5 -10zM1086 484q39 112 39 185q0 42 -11 61.5t-30 19.5q-27 0 -44 -31.5t-17 -89.5q0 -98 63 -145z" />
    <glyph glyph-name="X" unicode="X" horiz-adv-x="712" 
d="M833.5 211q7.5 -12 7.5 -33q0 -39 -19 -62q-49 -58 -97 -89.5t-107 -31.5q-89 0 -134.5 53t-73.5 155l-34 124l-236 -292q-20 -25 -41 -32.5t-49 -7.5t-46.5 10.5t-18.5 29.5q0 25 29 57l324 369l-32 117q-23 82 -51 115t-64 33q-53 0 -124 -77q-12 -13 -27 -13
t-25.5 11.5t-10.5 29.5q0 30 29 65q41 48 89 77t114 29q71 0 117 -44.5t73 -143.5l20 -70l175 213q20 24 41 34t51 10q27 0 42.5 -10t15.5 -28q0 -24 -27 -55l-260 -300l57 -204q15 -53 27 -81t29.5 -41.5t46.5 -13.5q31 0 64.5 22t77.5 73q12 14 27 14q13 0 20.5 -12z" />
    <glyph glyph-name="Y" unicode="Y" horiz-adv-x="851" 
d="M926 226q34 0 34 -44q0 -24 -10.5 -40.5t-32.5 -20.5q-91 -17 -179 -38l-3 -24q-28 -197 -111.5 -291.5t-208.5 -94.5q-83 0 -128.5 40.5t-45.5 103.5q0 105 94 187t285 145l20 141q4 24 10 64q-47 -124 -120 -185t-163 -61q-86 0 -131 52.5t-45 135.5q0 37 8 81.5
t25 120.5q15 69 22.5 110t7.5 73q0 48 -37 48q-29 0 -68.5 -28.5t-83.5 -87.5q-14 -19 -31 -19q-14 0 -24.5 13.5t-10.5 30.5q0 31 28 70q102 140 239 140q61 0 95.5 -37t34.5 -109q0 -52 -9.5 -106.5t-28.5 -138.5q-12 -50 -18 -80.5t-6 -50.5q0 -51 18 -73t63 -22
q54 0 110.5 59.5t102 180.5t65.5 296q5 44 23 62.5t52 18.5q70 0 70 -70q0 -12 -1 -19q-21 -149 -39 -269q-10 -72 -21.5 -148t-22.5 -154q73 20 154 36q6 2 18 2zM605 44q-242 -84 -242 -204q0 -28 17.5 -46.5t49.5 -18.5q139 0 174 262z" />
    <glyph glyph-name="Z" unicode="Z" horiz-adv-x="721" 
d="M842.5 211q7.5 -12 7.5 -33q0 -39 -19 -62q-56 -67 -108.5 -94t-126.5 -27q-52 0 -96 13t-107 39q-54 23 -96 37q-46 -50 -83 -69.5t-78 -19.5q-55 0 -88 25.5t-33 66.5q0 31 20.5 57t57.5 41t86 15q28 0 42 -1q196 244 354 515q-86 15 -175 15q-115 0 -168.5 -26.5
t-53.5 -83.5q0 -17 4 -29t12 -28q9 -18 9 -26q0 -20 -18.5 -33.5t-42.5 -13.5q-25 0 -41 15q-19 17 -30.5 46.5t-11.5 66.5q0 117 97 173t256 56q79 0 161.5 -9t154.5 -29q30 -8 40 -22.5t10 -37.5q0 -27 -14 -42t-39 -15h-7q-108 -176 -219 -338q-89 -129 -125 -175
q58 -13 101 -24q53 -14 85.5 -20.5t56.5 -6.5q58 0 99.5 19.5t78.5 62.5q12 14 27 14q13 0 20.5 -12z" />
    <glyph glyph-name="bracketleft" unicode="[" horiz-adv-x="405" 
d="M155 -93q-88 0 -88 75q0 6 2 22q43 351 113 837q8 51 31 70t81 19h140q34 0 49 -14.5t15 -38.5q0 -34 -15.5 -49t-50.5 -15h-120q-10 -85 -26.5 -205t-23.5 -176q-40 -279 -53 -408h105q39 0 56 -12.5t17 -40.5q0 -31 -18 -48t-60 -17z" />
    <glyph glyph-name="backslash" unicode="\" horiz-adv-x="509" 
d="M357.5 8.5q-15.5 13.5 -23.5 40.5l-222 778q-4 15 -4 30q0 34 20.5 55.5t46.5 21.5q18 0 32.5 -12t21.5 -37l227 -794q3 -12 3 -23q0 -30 -20.5 -51.5t-46.5 -21.5q-19 0 -34.5 13.5z" />
    <glyph glyph-name="bracketright" unicode="]" horiz-adv-x="405" 
d="M-33 -79.5q-15 14.5 -15 38.5q0 34 15.5 49t50.5 15h120q10 85 26.5 205t23.5 176q40 279 53 408h-105q-39 0 -56 12.5t-17 40.5q0 31 18 48t60 17l154 -1q88 0 88 -75q0 -6 -2 -22q-43 -351 -113 -837q-8 -51 -31 -70t-81 -19h-140q-34 0 -49 14.5z" />
    <glyph glyph-name="asciicircum" unicode="^" horiz-adv-x="700" 
d="M171 56q-15 -9 -32 -9q-21 0 -36 12t-15 31q0 14 9 30l230 410q11 20 28.5 30.5t36.5 10.5q18 0 32.5 -10.5t20.5 -30.5l129 -409q3 -10 3 -21q0 -24 -16.5 -38.5t-37.5 -14.5q-15 0 -27.5 9t-18.5 27l-100 332l-181 -332q-10 -18 -25 -27z" />
    <glyph glyph-name="underscore" unicode="_" horiz-adv-x="354" 
d="M-10 -98.5q-14 15.5 -14 43.5q0 27 14 41t39 14h247q52 0 52 -55q0 -28 -13.5 -43.5t-38.5 -15.5h-247q-25 0 -39 15.5z" />
    <glyph glyph-name="grave" unicode="`" horiz-adv-x="600" 
d="M272 549l-129 166q-22 28 -22 56t19.5 46t44.5 18q17 0 32 -10t24 -30l93 -208q4 -9 4 -19q0 -15 -10.5 -25.5t-24.5 -10.5q-18 0 -31 17z" />
    <glyph glyph-name="a" unicode="a" horiz-adv-x="470" 
d="M72 40q-37 45 -37 118q0 80 37 151.5t98.5 115t130.5 43.5q22 0 29.5 -8.5t12.5 -30.5q21 4 44 4q49 0 49 -35q0 -21 -15 -100q-23 -115 -23 -160q0 -15 7.5 -24t19.5 -9q19 0 46 24.5t73 79.5q12 14 27 14q13 0 20.5 -12t7.5 -33q0 -40 -19 -62q-41 -51 -87 -86t-89 -35
q-33 0 -60.5 22.5t-41.5 61.5q-52 -84 -131 -84q-62 0 -99 45zM249 122q20 26 29 69l37 184q-42 -1 -77.5 -31.5t-56.5 -80.5t-21 -106q0 -31 12.5 -46t34.5 -15t42 26z" />
    <glyph glyph-name="b" unicode="b" horiz-adv-x="473" 
d="M600 294q7 -13 7 -33q0 -25 -7 -38.5t-22 -18.5q-60 -21 -132 -24q-20 -83 -75.5 -134t-122.5 -51q-101 0 -147 77t-46 223q0 129 32 280.5t93.5 258t146.5 106.5q46 0 74 -39.5t28 -102.5q0 -82 -31 -163t-103 -170q67 -5 109 -55.5t50 -124.5q47 3 112 20q6 2 14 2
q13 0 20 -13zM260.5 781.5q-23.5 -59.5 -43.5 -161.5t-30 -223q66 121 105.5 213.5t39.5 164.5q0 32 -7.5 49t-20.5 17q-20 0 -43.5 -59.5zM307 127q24 26 32 75q-31 21 -47.5 55t-16.5 72q0 14 4 38h-3q-41 0 -68.5 -40.5t-27.5 -108.5q0 -57 21.5 -87t50.5 -30q31 0 55 26
z" />
    <glyph glyph-name="c" unicode="c" horiz-adv-x="368" 
d="M86.5 50.5q-54.5 55.5 -54.5 146.5q0 81 32 142t83 94t107 33q55 0 85.5 -32.5t30.5 -83.5q0 -42 -18.5 -71t-48.5 -29q-19 0 -30.5 9t-11.5 25q0 7 2 16t3 13q5 15 5 28t-6.5 20t-18.5 7q-23 0 -43 -20.5t-32 -55.5t-12 -77q0 -116 101 -116q41 0 88.5 27.5t93.5 82.5
q12 14 27 14q13 0 20.5 -12t7.5 -33q0 -38 -19 -62q-47 -58 -112.5 -89.5t-126.5 -31.5q-98 0 -152.5 55.5z" />
    <glyph glyph-name="d" unicode="d" horiz-adv-x="515" 
d="M636.5 211q7.5 -12 7.5 -33q0 -40 -19 -62q-41 -50 -90 -85.5t-97 -35.5q-76 0 -116 89q-42 -53 -73.5 -71t-73.5 -18q-61 0 -100.5 45.5t-39.5 118.5q0 80 34 148.5t93.5 112t133.5 51.5q19 194 72.5 331.5t140.5 137.5q43 0 71.5 -39t28.5 -118q0 -112 -55 -262
t-147 -308q4 -58 17.5 -83t34.5 -25q27 0 55 24t75 80q12 14 27 14q13 0 20.5 -12zM460 774.5q-19 -67.5 -32.5 -176.5t-19.5 -228q112 244 112 392q0 38 -6.5 59t-15.5 21q-19 0 -38 -67.5zM248 111.5q19 15.5 48 57.5q-10 54 -10 121q0 24 2 78q-55 -17 -91.5 -73.5
t-36.5 -125.5q0 -73 50 -73q19 0 38 15.5z" />
    <glyph glyph-name="e" unicode="e" horiz-adv-x="393" 
d="M514.5 211q7.5 -12 7.5 -33q0 -40 -19 -62q-37 -45 -104.5 -83t-144.5 -38q-105 0 -163 57t-58 156q0 69 29 128.5t80.5 94.5t116.5 35q58 0 93 -34.5t35 -93.5q0 -69 -49.5 -118.5t-167.5 -78.5q25 -46 95 -46q45 0 102.5 31.5t99.5 82.5q12 14 27 14q13 0 20.5 -12z
M179.5 325q-25.5 -43 -25.5 -104v-2q59 14 93 42t34 65q0 19 -10.5 30.5t-28.5 11.5q-37 0 -62.5 -43z" />
    <glyph glyph-name="f" unicode="f" horiz-adv-x="371" 
d="M475 238q0 -79 -124 -79q-24 0 -69 9q13 -62 21.5 -137.5t8.5 -124.5q0 -108 -35 -165t-92 -57q-72 0 -102.5 102t-30.5 308q0 192 41.5 389.5t114 327t159.5 129.5q47 0 73.5 -42t26.5 -113q0 -235 -281 -512q-10 -98 -10 -172q0 -103 7 -211.5t23 -108.5q30 0 30 104
q0 78 -10.5 151t-28.5 154q-1 13 8.5 33t23.5 35t25 15q20 0 48 -2q9 -1 21 -1q40 0 89 7q8 1 17 2t18 1q28 0 28 -42zM301.5 780q-26.5 -61 -52.5 -161.5t-45 -212.5q80 91 123 189.5t44 184.5q0 61 -25 61q-18 0 -44.5 -61z" />
    <glyph glyph-name="g" unicode="g" horiz-adv-x="479" 
d="M580.5 208.5q7.5 -12.5 7.5 -31.5q0 -23 -7 -36t-22 -23q-86 -58 -126 -86l-64 -43q-38 -207 -99.5 -325.5t-156.5 -118.5q-51 0 -83 31.5t-32 82.5q0 71 56 152.5t210 200.5l6 39q-17 -27 -44.5 -41.5t-54.5 -14.5q-62 0 -99 45t-37 118q0 80 37 151.5t98.5 115
t130.5 43.5q22 0 29.5 -8.5t12.5 -30.5q19 4 44 4t35.5 -7.5t10.5 -29.5q0 -12 -1 -19q-4 -31 -25 -157q-4 -24 -8.5 -52.5t-9.5 -60.5q77 60 148 106q13 8 23 8q13 0 20.5 -12.5zM251 124q21 28 30 80l32 171q-41 -1 -76 -31.5t-56 -80.5t-21 -106q0 -31 12.5 -46t34.5 -15
q23 0 44 28zM180.5 -298q31.5 60 60.5 191q-77 -66 -111 -119t-34 -93q0 -17 6.5 -28t21.5 -11q25 0 56.5 60z" />
    <glyph glyph-name="h" unicode="h" horiz-adv-x="502" 
d="M623.5 211q7.5 -12 7.5 -33q0 -40 -19 -62q-46 -53 -94.5 -87t-110.5 -34q-51 0 -77 29.5t-26 85.5q0 28 14 100q13 63 13 87q0 16 -11 16q-13 0 -37 -33.5t-48 -88.5t-39 -116q-19 -80 -94 -80q-30 0 -39.5 21.5t-9.5 77.5q0 32 1 51l1 80q0 154 31.5 321t93 280.5
t147.5 113.5q46 0 74.5 -39.5t28.5 -102.5q0 -101 -59 -209.5t-192 -253.5q-3 -52 -3 -107q33 85 73.5 138.5t80 76.5t72.5 23q65 0 65 -65q0 -39 -22 -141q-19 -87 -19 -115q0 -40 29 -40q20 0 47.5 24.5t73.5 79.5q12 14 27 14q13 0 20.5 -12zM266 789.5
q-22 -51.5 -42.5 -139t-33.5 -190.5q62 73 102.5 159t40.5 156q0 32 -7 49t-20 17q-18 0 -40 -51.5z" />
    <glyph glyph-name="i" unicode="i" horiz-adv-x="246" 
d="M116 551.5q-21 19.5 -21 54.5t27.5 58.5t68.5 23.5q37 0 60 -18t23 -51q0 -40 -26 -63.5t-69 -23.5q-42 0 -63 19.5zM76.5 41q-29.5 46 -29.5 122q0 45 11.5 115.5t29.5 131.5q9 32 24 44t48 12q51 0 51 -34q0 -25 -19 -116q-24 -110 -24 -149q0 -30 8 -46t27 -16
q18 0 45 25t72 79q12 14 27 14q13 0 20.5 -12t7.5 -33q0 -40 -19 -62q-99 -121 -185 -121q-65 0 -94.5 46z" />
    <glyph glyph-name="j" unicode="j" horiz-adv-x="254" 
d="M92 551.5q-21 19.5 -21 54.5t27.5 58.5t68.5 23.5q37 0 60 -18t23 -51q0 -40 -26 -63.5t-69 -23.5q-42 0 -63 19.5zM355.5 208.5q7.5 -12.5 7.5 -31.5q0 -23 -7 -36t-22 -23q-70 -46 -187 -127q-39 -208 -101 -327t-158 -119q-52 0 -83.5 31.5t-31.5 82.5q0 71 55 151.5
t207 198.5l7 51q14 96 22 189q6 54 19 161q4 29 22 42.5t55 13.5q30 0 39.5 -9t9.5 -25q0 -46 -33 -254l-10 -69q80 60 146 104q13 8 23 8q13 0 20.5 -12.5zM-44 -299q31 59 58 190q-76 -65 -109.5 -117.5t-33.5 -92.5q0 -39 28 -39q26 0 57 59z" />
    <glyph glyph-name="k" unicode="k" horiz-adv-x="525" 
d="M646.5 211q7.5 -12 7.5 -33q0 -40 -19 -62q-45 -55 -91 -88t-109 -33q-77 0 -124 44t-47 117q0 39 40 56q44 19 63 40.5t19 52.5q0 18 -7.5 27t-18.5 9q-27 0 -59.5 -39t-60.5 -100.5t-44 -126.5q-11 -47 -25.5 -63.5t-45.5 -16.5t-45.5 22.5t-19.5 69.5t-5 138
q0 154 31.5 321t93 280.5t147.5 113.5q46 0 74.5 -39.5t28.5 -102.5q0 -101 -59 -209.5t-192 -253.5q-3 -52 -3 -107q48 125 110 181.5t116 56.5q50 0 80.5 -34t30.5 -84q0 -55 -28 -101t-96 -82q4 -27 24.5 -43.5t49.5 -16.5q31 0 60 24t76 80q12 14 27 14q13 0 20.5 -12z
M266 789.5q-22 -51.5 -42.5 -139t-33.5 -190.5q62 73 102.5 159t40.5 156q0 32 -7 49t-20 17q-18 0 -40 -51.5z" />
    <glyph glyph-name="l" unicode="l" horiz-adv-x="326" 
d="M447.5 211q7.5 -12 7.5 -33q0 -40 -19 -62q-43 -53 -93.5 -87t-114.5 -34q-88 0 -130.5 80t-42.5 207q0 122 31.5 278t93 268t146.5 112q48 0 75.5 -44.5t27.5 -127.5q0 -119 -66 -276t-179 -311q7 -41 23 -58.5t42 -17.5q41 0 72 23.5t79 80.5q12 14 27 14
q13 0 20.5 -12zM252 758q-29 -83 -51 -206t-24 -236q71 117 113 234.5t42 214.5q0 76 -28 76q-23 0 -52 -83z" />
    <glyph glyph-name="m" unicode="m" horiz-adv-x="744" 
d="M65.5 35q-15.5 40 -15.5 128q0 130 37 247q9 29 29.5 42.5t57.5 13.5q20 0 28 -5t8 -19q0 -16 -15 -72q-10 -40 -16 -69.5t-10 -73.5q27 78 64.5 132t77 80.5t74.5 26.5t49.5 -16t14.5 -49q0 -32 -19 -116q-8 -36 -11 -54q50 123 111 179t114 56q65 0 65 -65
q0 -39 -22 -141q-19 -87 -19 -115q0 -40 29 -40q20 0 47.5 24.5t73.5 79.5q12 14 27 14q13 0 20.5 -12t7.5 -33q0 -40 -19 -62q-43 -53 -92.5 -87t-112.5 -34q-51 0 -77 29.5t-26 85.5q0 28 14 100q13 63 13 87q0 16 -11 16q-13 0 -37 -33.5t-48 -88.5t-39 -116
q-11 -48 -25.5 -64t-46.5 -16q-33 0 -49.5 31.5t-16.5 76.5q0 38 10 110q8 64 8 84q0 16 -11 16q-15 0 -38 -36t-44.5 -92t-34.5 -110q-11 -47 -25.5 -63.5t-45.5 -16.5q-38 0 -53.5 40z" />
    <glyph glyph-name="n" unicode="n" horiz-adv-x="496" 
d="M65.5 35q-15.5 40 -15.5 128q0 130 37 247q9 29 29.5 42.5t57.5 13.5q20 0 28 -5t8 -19q0 -16 -15 -72q-10 -40 -16 -70t-10 -74q33 86 74 140t80.5 77t72.5 23q65 0 65 -65q0 -39 -22 -141q-19 -87 -19 -115q0 -40 29 -40q20 0 47.5 24.5t73.5 79.5q12 14 27 14
q13 0 20.5 -12t7.5 -33q0 -40 -19 -62q-43 -53 -92.5 -87t-112.5 -34q-51 0 -77 29.5t-26 85.5q0 28 14 100q13 63 13 87q0 16 -11 16q-13 0 -36.5 -33.5t-48 -88.5t-39.5 -116q-11 -47 -25.5 -63.5t-45.5 -16.5q-38 0 -53.5 40z" />
    <glyph glyph-name="o" unicode="o" horiz-adv-x="451" 
d="M578 294q7 -13 7 -33q0 -48 -29 -57q-60 -21 -132 -24q-19 -84 -75 -134.5t-127 -50.5q-60 0 -102.5 29t-64.5 77t-22 104q0 76 29 135.5t80 93t113 33.5q76 0 122.5 -52.5t54.5 -129.5q47 3 112 20q8 2 14 2q13 0 20 -13zM285.5 127q23.5 26 31.5 75q-31 21 -47.5 55
t-16.5 72q0 16 3 32h-5q-40 0 -66.5 -38.5t-26.5 -108.5q0 -55 21.5 -84t50.5 -29q32 0 55.5 26z" />
    <glyph glyph-name="p" unicode="p" horiz-adv-x="481" 
d="M602.5 211q7.5 -12 7.5 -33q0 -40 -19 -62q-43 -53 -92.5 -87t-112.5 -34q-53 0 -86 38q-57 -37 -119 -38q-13 -193 -59 -322.5t-135 -129.5q-54 0 -80 39t-26 108q0 98 45 228.5t139 287.5q0 146 -2 203q-1 29 23 46t60 17q21 0 30.5 -8.5t10.5 -33.5q0 -25 1 -37
q32 40 63 57.5t66 17.5q56 0 91.5 -45t35.5 -118q0 -53 -17 -103t-47 -91q21 -6 35 -6q33 0 63 24t77 80q12 14 27 14q13 0 20.5 -12zM252.5 130.5q30.5 31.5 48.5 78t18 97.5q0 30 -12 45.5t-32 15.5q-36 0 -87 -76q-1 -44 -1 -129q0 -46 -1 -71q36 8 66.5 39.5zM40 -241.5
q18 117.5 23 292.5q-43 -100 -68 -191t-25 -153q0 -32 7.5 -49t17.5 -17q27 0 45 117.5z" />
    <glyph glyph-name="q" unicode="q" horiz-adv-x="500" 
d="M632 161q0 -39 -17.5 -61t-47.5 -22l-37 1q-10 1 -29 1q4 -57 4 -114q0 -151 -39.5 -263t-123.5 -112q-57 0 -86.5 65.5t-29.5 159.5q0 117 26 231q-34 -52 -89 -52t-91.5 46t-36.5 119q0 79 37.5 150t100 114.5t133.5 43.5q24 0 37 -16q9 32 27 43t50 11q34 0 45.5 -10
t10.5 -29q0 -12 -12.5 -55.5t-16.5 -57.5q-16 -56 -34.5 -124t-29.5 -124q-32 -160 -32 -283q0 -46 7.5 -78.5t19.5 -32.5q10 0 21.5 34t19.5 91t8 121q0 76 -7 135q-1 5 -1 16q0 33 16.5 55t46.5 22q4 0 76 3q30 3 51 3q23 0 23 -31zM247 124.5q21 28.5 30 68.5l43 182
q-44 -1 -80.5 -31t-58 -79.5t-21.5 -104.5q0 -31 11.5 -47.5t31.5 -16.5q23 0 44 28.5z" />
    <glyph glyph-name="r" unicode="r" horiz-adv-x="455" 
d="M65.5 35q-15.5 40 -15.5 128q0 130 37 247q9 29 29.5 42.5t57.5 13.5q20 0 28 -5t8 -19q0 -16 -15 -72q-10 -40 -16 -70t-10 -74q33 86 74 140t80.5 77t72.5 23q65 0 65 -65q0 -13 -9 -63q-8 -40 -8 -50q0 -35 25 -35q28 0 72 44q13 13 27 13q13 0 20.5 -11.5t7.5 -30.5
q0 -37 -20 -58q-28 -29 -65.5 -49.5t-79.5 -20.5q-53 0 -80.5 27t-27.5 73q0 15 3 30q2 20 2 27q0 16 -11 16q-15 0 -39.5 -33.5t-48.5 -88.5t-39 -116q-11 -47 -25.5 -63.5t-45.5 -16.5q-38 0 -53.5 40z" />
    <glyph glyph-name="s" unicode="s" horiz-adv-x="427" 
d="M154.5 -3q-27.5 24 -27.5 54q0 26 19 45t56 19q13 0 30.5 -2.5t26.5 -3.5q-1 26 -11.5 49t-26.5 44.5t-30 37.5q-31 -59 -61.5 -98t-66.5 -74q-18 -18 -38 -18q-16 0 -26 11.5t-10 28.5q0 20 14 37l13 16q55 68 83 112q17 29 40 77.5t45 100.5q19 44 79 44q28 0 39 -5
t11 -16q0 -6 -4 -19t-11 -26q-18 -36 -18 -61q0 -15 10.5 -33t32.5 -45q32 -42 48.5 -71.5t16.5 -64.5q0 -10 -2 -28q49 19 115 101q12 14 27 14q13 0 20.5 -12t7.5 -33q0 -38 -19 -62q-50 -62 -95.5 -84.5t-112.5 -24.5q-40 -34 -95 -34q-52 0 -79.5 24z" />
    <glyph glyph-name="t" unicode="t" horiz-adv-x="393" 
d="M514.5 211q7.5 -12 7.5 -33q0 -40 -19 -62q-43 -53 -94 -87t-117 -34q-204 0 -204 287q0 44 3 89h-39q-30 0 -40.5 11t-10.5 35q0 56 45 56h57q17 110 52 201t84.5 145t106.5 54q42 0 66 -37t24 -93q0 -155 -130 -270h112q16 0 23 -7t7 -26q0 -69 -113 -69h-122
q-2 -50 -2 -78q0 -104 24.5 -146t77.5 -42q43 0 76 26t78 78q12 14 27 14q13 0 20.5 -12zM285.5 739.5q-18.5 -37.5 -35 -104t-27.5 -147.5q59 51 88.5 114.5t29.5 115.5q0 59 -22 59q-15 0 -33.5 -37.5z" />
    <glyph glyph-name="u" unicode="u" horiz-adv-x="462" 
d="M76.5 36.5q-28.5 41.5 -28.5 103.5q0 75 10 137.5t33 132.5q10 30 28 43t57 13q22 0 30.5 -7t8.5 -21q0 -8 -11 -54q-10 -37 -16 -67q-20 -105 -20 -140q0 -21 5 -29.5t16 -8.5q15 0 37.5 30t48 91t49.5 150q8 30 24.5 43t49.5 13q23 0 32 -5.5t9 -20.5q0 -25 -25 -137
q-28 -128 -28 -158q0 -19 8 -29.5t21 -10.5q20 0 47.5 24.5t73.5 79.5q12 14 27 14q13 0 20.5 -12t7.5 -33q0 -40 -19 -62q-43 -53 -92.5 -87t-112.5 -34q-48 0 -70.5 37t-22.5 104q-17 -68 -51 -104.5t-73 -36.5q-45 0 -73.5 41.5z" />
    <glyph glyph-name="v" unicode="v" horiz-adv-x="449" 
d="M553 305q15 0 23 -10t8 -27q0 -31 -12 -48.5t-36 -25.5q-46 -15 -98 -15q-44 0 -83 12q-29 -47 -64 -97q-40 -57 -69 -78t-66 -21q-41 0 -64.5 32t-29.5 101q-12 140 -12 245v35q1 33 18 46t51 13q26 0 38.5 -11.5t12.5 -38.5q0 -115 14 -299q60 89 90 142q-15 29 -15 69
q0 34 15 66t41 52t59 20q29 0 47 -20.5t18 -59.5q0 -45 -24 -103q38 2 101 15l27 5q3 1 10 1z" />
    <glyph glyph-name="w" unicode="w" horiz-adv-x="700" 
d="M804 305q15 0 23 -10t8 -27q0 -31 -12 -48.5t-36 -25.5q-46 -15 -98 -15q-44 0 -83 12q-29 -47 -64 -97q-40 -57 -68.5 -78t-64.5 -21q-40 0 -60.5 31t-25.5 102l-5 73q-31 -84 -55.5 -128t-49 -61t-57.5 -17q-41 0 -64.5 32t-29.5 101q-12 140 -12 245v35q1 33 18 46
t51 13q26 0 38.5 -11.5t12.5 -38.5q0 -115 14 -299q68 143 125 298q11 30 26.5 40.5t37.5 10.5q27 0 37.5 -11t10.5 -39q0 -115 14 -299q60 89 90 142q-15 29 -15 69q0 34 15 66t41 52t59 20q29 0 47 -20.5t18 -59.5q0 -45 -24 -103q38 2 101 15l27 5q3 1 10 1z" />
    <glyph glyph-name="x" unicode="x" horiz-adv-x="529" 
d="M650.5 211q7.5 -12 7.5 -33q0 -40 -19 -62q-44 -52 -96.5 -86.5t-118.5 -34.5q-51 0 -90.5 19t-62.5 54q-57 -72 -135 -72q-55 0 -87 32t-32 85q0 50 23 81t65 31q36 0 36 -27q0 -7 -2 -25q-3 -36 -3 -41q0 -30 26 -30q19 0 36.5 22.5t29 61.5t11.5 86q0 36 -9 60.5
t-22 24.5q-11 0 -16 -5.5t-10 -18.5q-6 -16 -16 -25.5t-35 -9.5q-22 0 -35 15.5t-13 47.5q0 51 31 80t80 29q42 0 76 -20.5t52 -59.5q30 40 67.5 60t73.5 20q39 0 59.5 -18t20.5 -58q0 -45 -17 -70.5t-41 -25.5q-22 0 -30 9t-12 26q-2 12 -6 18t-14 6q-12 0 -25.5 -22.5
t-23 -59.5t-9.5 -77q0 -47 22.5 -72.5t61.5 -25.5t73.5 26.5t80.5 82.5q12 14 27 14q13 0 20.5 -12z" />
    <glyph glyph-name="y" unicode="y" horiz-adv-x="479" 
d="M580.5 208.5q7.5 -12.5 7.5 -31.5q0 -23 -7 -36t-22 -23l-192 -129q-38 -207 -99.5 -325.5t-156.5 -118.5q-51 0 -83 31.5t-32 82.5q0 47 21.5 96t80 112.5t165.5 145.5l3 23q7 37 16 106q-20 -72 -56 -109.5t-76 -37.5q-45 0 -73.5 41.5t-28.5 103.5q0 75 10 137.5
t33 132.5q10 30 28 43t57 13q22 0 30.5 -7t8.5 -21q0 -8 -11 -54q-10 -37 -16 -67q-8 -41 -14 -78.5t-6 -61.5q0 -38 21 -38q15 0 37.5 30t48 91t49.5 150q8 30 24.5 43t49.5 13q23 0 32 -6t9 -20q0 -25 -26 -172l-26 -161q77 58 150 106q13 8 23 8q13 0 20.5 -12.5z
M178 -300q31 58 62 193q-77 -65 -111.5 -118.5t-34.5 -93.5q0 -17 6.5 -28t21.5 -11q25 0 56 58z" />
    <glyph glyph-name="z" unicode="z" horiz-adv-x="445" 
d="M567.5 211q7.5 -12 7.5 -33q0 -37 -19 -62q-47 -61 -116.5 -96t-156.5 -35q-68 0 -118 20.5t-76.5 56t-26.5 79.5q0 66 53 117t152 98l-164 -4q-22 -1 -33.5 15.5t-11.5 39.5q0 24 11.5 42.5t31.5 18.5q46 0 123 -7q16 -1 58.5 -4t71.5 -3q10 0 38 8q5 1 19.5 5t24.5 4
q16 0 26.5 -14t10.5 -43q0 -32 -15 -50t-47 -32q-91 -39 -151 -83.5t-60 -88.5q0 -28 26 -46t77 -18q56 0 113.5 28t103.5 85q12 14 27 14q13 0 20.5 -12z" />
    <glyph glyph-name="braceleft" unicode="{" horiz-adv-x="490" 
d="M556 917q23 -13 23 -50q0 -20 -16.5 -34t-45.5 -14q-49 0 -77 -9.5t-40.5 -29.5t-15.5 -54q-3 -41 -16 -137l-3 -27q-12 -93 -100 -130q64 -30 64 -115q0 -10 -2 -34l-9 -62q-12 -88 -14 -110q-1 -7 -1 -19q0 -41 24 -57t86 -16q28 0 45 -15t17 -37q0 -31 -25 -46.5
t-85 -15.5q-100 0 -147.5 47t-47.5 133q0 27 2 41q3 27 6.5 50.5t5.5 43.5l9 72q1 6 1 17q0 34 -21.5 49.5t-67.5 15.5q-27 0 -41 19.5t-11 46.5q7 53 61 53q55 0 83 19.5t35 68.5q1 5 15 119l6 53q12 89 70.5 133t154.5 44q55 0 78 -13z" />
    <glyph glyph-name="bar" unicode="|" horiz-adv-x="326" 
d="M43.5 -294.5q-15.5 12.5 -12.5 42.5q22 189 80 567q4 28 23 149.5t33 226t24 191.5q3 29 23 41t47 12q61 0 55 -53q-13 -113 -29 -226.5t-31.5 -213t-19.5 -127.5q-58 -378 -80 -567q-3 -30 -23 -42.5t-47 -12.5t-42.5 12.5z" />
    <glyph glyph-name="braceright" unicode="}" horiz-adv-x="490" 
d="M476 472.5q14 -19.5 11 -46.5q-7 -53 -61 -53q-55 0 -83 -19.5t-35 -68.5q-6 -46 -19 -155l-6 -48q-12 -89 -70.5 -133t-154.5 -44q-55 0 -78 13t-23 50q0 20 16.5 34t45.5 14q49 0 77 9.5t40.5 29.5t15.5 54q4 57 19 161l4 34q12 93 100 130q-64 30 -64 115q0 10 2 34
q7 52 8 55q8 54 11 86q1 7 1 19q0 41 -24 57t-86 16q-28 0 -45 15t-17 37q0 31 25 46.5t85 15.5q100 0 147.5 -47t47.5 -133q0 -27 -2 -41q-2 -21 -9 -74q-1 -9 -8 -61q-1 -6 -1 -17q0 -34 21.5 -49.5t67.5 -15.5q27 0 41 -19.5z" />
    <glyph glyph-name="asciitilde" unicode="~" horiz-adv-x="700" 
d="M444 171.5q-15 6.5 -49 26.5l-158 93l-55 -79q-11 -15 -27.5 -24t-33.5 -9q-19 0 -32 11.5t-13 32.5q0 33 42 97q27 42 54.5 61.5t60.5 19.5q19 0 36 -7t49 -26l158 -93l55 79q11 15 27.5 24t33.5 9q19 0 32 -11.5t13 -32.5q0 -33 -42 -97q-28 -42 -56 -61.5t-61 -19.5
q-19 0 -34 6.5z" />
    <glyph glyph-name="uni00A0" unicode="&#xa0;" horiz-adv-x="265" 
 />
    <glyph glyph-name="exclamdown" unicode="&#xa1;" horiz-adv-x="340" 
d="M143.5 299.5q-22.5 21.5 -22.5 63.5q0 46 26 73.5t71 27.5q44 0 66.5 -24t22.5 -63q0 -45 -25.5 -72t-71.5 -27q-44 0 -66.5 21.5zM-11.5 -376q-14.5 10 -14.5 30q0 9 3 21q26 106 69 256.5t82 261.5q11 32 52 32q20 0 33 -9t13 -28l-1 -8q-17 -111 -46 -254.5
t-54 -247.5q-8 -33 -29.5 -48.5t-57.5 -15.5q-35 0 -49.5 10z" />
    <glyph glyph-name="cent" unicode="&#xa2;" horiz-adv-x="466" 
d="M427.5 177.5q7.5 -11.5 7.5 -29.5q0 -36 -17 -62q-53 -82 -164 -90l-11 -98q-2 -15 -14 -23.5t-26 -8.5t-23 8.5t-7 23.5l14 102q-64 16 -103.5 70.5t-39.5 126.5q0 66 25.5 119.5t70.5 86.5t102 41l12 101q1 15 12.5 23t25.5 8q15 0 24.5 -8.5t7.5 -22.5l-14 -101
q60 -7 89 -37.5t29 -76.5q0 -42 -18.5 -71t-48.5 -29q-19 0 -30.5 9t-11.5 25q0 7 2 16t3 13q5 15 5 28t-6.5 20t-24.5 10l-18 -129l-15 -129q34 3 59.5 22t55.5 59q12 15 27 15q13 0 20.5 -11.5zM201 106l15 116l15 124q-36 -13 -53.5 -50.5t-17.5 -93.5q0 -69 41 -96z" />
    <glyph glyph-name="sterling" unicode="&#xa3;" horiz-adv-x="525" 
d="M261.5 447q-33.5 -41 -39.5 -123l-1 -16l151 4q13 0 20 -10t7 -24q0 -18 -10 -32.5t-27 -14.5l-147 1l-10 -117l259 7q21 1 32 -14t11 -37q0 -27 -16.5 -48.5t-44.5 -21.5q-27 0 -79.5 3t-74.5 4q-98 7 -142 7q-15 0 -32 -5t-20 -6q-25 -9 -40 -9q-16 0 -26.5 15.5
t-10.5 44.5q0 32 15.5 48.5t46.5 22.5l9 106l-35 -1q-14 0 -21.5 10.5t-7.5 25.5q0 17 9.5 30.5t26.5 12.5l34 -1l3 31q10 114 75.5 179t169.5 65q53 0 93.5 -18.5t62.5 -50.5t22 -71q0 -29 -15 -45t-43 -16q-46 0 -63 57q-14 48 -64 48q-44 0 -77.5 -41z" />
    <glyph glyph-name="currency" unicode="&#xa4;" horiz-adv-x="700" 
d="M167 53q-17 0 -31 13.5t-14 30.5q0 15 12 27l51 51q-34 53 -34 114q0 62 33 112l-51 51q-11 11 -11 26q0 17 13.5 31t30.5 14q14 0 26 -12l51 -51q51 35 114 35q61 0 114 -34l51 50q11 11 26 11q17 0 30.5 -14t13.5 -31q0 -14 -11 -25l-51 -51q33 -50 33 -112
q0 -61 -34 -114l51 -51q12 -12 12 -27q0 -17 -14 -30.5t-31 -13.5q-15 0 -26 11l-52 52q-50 -33 -112 -33t-112 33l-52 -52q-11 -11 -26 -11zM441 205.5q31 34.5 31 83.5t-31 83.5t-84 34.5t-84 -34.5t-31 -83.5t31 -83.5t84 -34.5t84 34.5z" />
    <glyph glyph-name="yen" unicode="&#xa5;" horiz-adv-x="497" 
d="M521.5 573q15.5 -8 15.5 -25q0 -19 -20 -46l-173 -232l86 1q13 0 20.5 -8.5t7.5 -20.5q0 -15 -9.5 -26t-26.5 -11l-109 1l-4 -41l112 1q13 0 20.5 -8.5t7.5 -20.5q0 -15 -10 -27t-27 -11l-110 2l-6 -55q-6 -51 -70 -51q-30 0 -46.5 12t-16.5 36l1 10l6 47l-104 -2
q-13 0 -20 7.5t-7 19.5q0 15 10 27.5t26 12.5l103 -1l5 43l-107 -1q-13 0 -20 8t-7 20q0 15 9.5 27t25.5 11l87 -2l-120 214q-16 27 -16 51t17.5 36t44.5 12q43 0 63 -38l106 -208l145 209q14 20 30.5 27.5t42.5 7.5q22 0 37.5 -8z" />
    <glyph glyph-name="brokenbar" unicode="&#xa6;" horiz-adv-x="326" 
d="M145 404.5q-16 10.5 -16 33.5q0 7 1 11l61 433q4 29 23.5 41t46.5 12q56 0 56 -43q0 -6 -1 -10l-61 -433q-4 -30 -23.5 -42.5t-46.5 -12.5q-24 0 -40 10.5zM46 -297q-16 10 -16 34q0 7 1 11l61 433q4 29 23.5 41t46.5 12q56 0 56 -43q0 -6 -1 -10l-61 -433
q-4 -30 -23.5 -42.5t-46.5 -12.5q-24 0 -40 10z" />
    <glyph glyph-name="section" unicode="&#xa7;" horiz-adv-x="607" 
d="M456 616q-13 12 -13 29q0 9 2 25t2 29q0 55 -77 55q-46 0 -72 -21.5t-26 -59.5q0 -27 16 -46t40.5 -32.5t77.5 -36.5q72 -32 101.5 -67t29.5 -92q0 -42 -19.5 -75.5t-52.5 -57.5q34 -39 34 -97q0 -83 -60.5 -128.5t-161.5 -45.5q-94 0 -150.5 37t-56.5 115q0 41 18 62.5
t53 21.5q20 0 33 -10.5t13 -26.5l-1 -26q-2 -16 -2 -27q0 -28 29 -42t71 -14q47 0 72 17.5t25 49.5q0 24 -12 39.5t-32 25.5t-60 25q-75 28 -119 67.5t-44 111.5q0 88 72 142q-32 40 -32 98q0 54 27 95.5t77 64.5t116 23q91 0 138.5 -37.5t47.5 -107.5q0 -49 -16.5 -72
t-54.5 -23q-20 0 -33 12zM399 428.5q-25 18.5 -80 44.5q-51 25 -69 35q-24 -24 -24 -63q0 -34 24.5 -55t71.5 -42l20 -9q24 -9 48 -21q34 23 34 63q0 29 -25 47.5z" />
    <glyph glyph-name="dieresis" unicode="&#xa8;" horiz-adv-x="600" 
d="M153 549.5q-18 17.5 -18 54.5q0 40 21.5 62.5t57.5 22.5q32 0 50 -17.5t18 -54.5q0 -40 -21.5 -62.5t-57.5 -22.5q-32 0 -50 17.5zM361 549.5q-18 17.5 -18 54.5q0 40 21.5 62.5t57.5 22.5q32 0 50 -17.5t18 -54.5q0 -40 -21.5 -62.5t-57.5 -22.5q-32 0 -50 17.5z" />
    <glyph glyph-name="copyright" unicode="&#xa9;" horiz-adv-x="647" 
d="M224 392q-66 39 -103.5 105.5t-37.5 146.5t37.5 146.5t103.5 105.5t150 39t150 -39t103.5 -105.5t37.5 -146.5t-37.5 -146.5t-103.5 -105.5t-150 -39t-150 39zM489 449.5q49 30.5 75 82t26 112.5t-26 112.5t-75 82t-115 30.5t-115 -30.5t-75 -82t-26 -112.5t26 -112.5
t75 -82t115 -30.5t115 30.5zM264 517.5q-40 41.5 -40 112.5q0 54 23.5 98t63 69t87.5 25q47 0 71 -22.5t24 -59.5q0 -55 -44 -55q-12 0 -18.5 5.5t-6.5 15.5q0 4 2.5 16t2.5 17q0 12 -8 19.5t-23 7.5q-44 0 -74 -37t-30 -92q0 -46 21.5 -74t60.5 -28q26 0 48 10t45 31
q8 6 12 6q7 0 10.5 -7t3.5 -17q0 -17 -11 -31q-45 -51 -117 -51q-63 0 -103 41.5z" />
    <glyph glyph-name="ordfeminine" unicode="&#xaa;" horiz-adv-x="393" 
d="M109 487.5q-31 37.5 -31 98.5q0 67 31.5 126.5t84 96t113.5 36.5q19 0 25 -7t10 -26q12 3 35 3q49 0 49 -38q0 -17 -9 -67q-9 -53 -14 -98t-5 -102q0 -33 -14 -46.5t-48 -13.5q-31 0 -44.5 17t-10.5 55q-26 -72 -89 -72q-52 0 -83 37.5zM266.5 567.5
q18.5 32.5 34.5 115.5l16 84q-34 -1 -63 -26.5t-46.5 -67t-17.5 -88.5q0 -25 9.5 -37.5t25.5 -12.5q23 0 41.5 32.5z" />
    <glyph glyph-name="guillemotleft" unicode="&#xab;" horiz-adv-x="615" 
d="M64 171q-37 31 -37 66q0 21 7 39t21 27l159 108q18 12 36 12q23 0 39.5 -16.5t16.5 -37.5q0 -24 -23 -40l-129 -89l130 -111q15 -12 15 -30q0 -21 -20.5 -39t-44.5 -18q-18 0 -29 10zM330 171q-38 32 -38 66q0 21 7 39t21 27l160 108q18 12 36 12q23 0 39.5 -16t16.5 -37
q0 -25 -24 -41l-129 -89l130 -111q15 -12 15 -30q0 -21 -20.5 -39t-44.5 -18q-18 0 -29 10z" />
    <glyph glyph-name="logicalnot" unicode="&#xac;" horiz-adv-x="700" 
d="M582 43q-18 -12 -41 -12q-26 0 -44.5 15t-14.5 40l20 145h-372q-23 0 -35 14.5t-12 34.5q0 25 16.5 45t44.5 20h421q31 0 47.5 -17t16.5 -44q0 -9 -1 -14l-25 -192q-3 -23 -21 -35z" />
    <glyph glyph-name="uni00AD" unicode="&#xad;" horiz-adv-x="403" 
d="M71.5 260q-14.5 16 -14.5 45q0 27 13.5 40t39.5 15l205 20q25 2 38.5 -12.5t13.5 -42.5q0 -54 -52 -59l-205 -20q-24 -2 -38.5 14z" />
    <glyph glyph-name="registered" unicode="&#xae;" horiz-adv-x="647" 
d="M224 392q-66 39 -103.5 105.5t-37.5 146.5t37.5 146.5t103.5 105.5t150 39t150 -39t103.5 -105.5t37.5 -146.5t-37.5 -146.5t-103.5 -105.5t-150 -39t-150 39zM489 449.5q49 30.5 75 82t26 112.5t-26 112.5t-75 82t-115 30.5t-115 -30.5t-75 -82t-26 -112.5t26 -112.5
t75 -82t115 -30.5t115 30.5zM422.5 484q-9.5 6 -17 18.5t-24.5 49.5q-16 33 -25.5 45t-24.5 13q-10 -53 -15 -102q-2 -16 -8.5 -22.5t-22.5 -6.5q-14 0 -23.5 7t-9.5 18q0 16 11 78l7 44l9 53q3 12 4.5 24t3.5 23q-1 -11 7 47l-15 -6q-8 -4 -14.5 1.5t-6.5 14.5q0 13 14 23
q14 9 39 14.5t51 5.5q63 0 98.5 -26.5t35.5 -68.5q0 -36 -26.5 -66t-81.5 -40q20 -5 31 -16t24 -33l11 -20q13 -23 21 -34q7 -10 7 -20t-11 -17t-22 -7q-17 0 -26.5 6zM405.5 677q22.5 20 22.5 53q0 24 -16.5 35.5t-52.5 11.5q-13 -75 -16 -97l-3 -24q43 1 65.5 21z" />
    <glyph glyph-name="macron" unicode="&#xaf;" horiz-adv-x="600" 
d="M155.5 543q-11.5 11 -11.5 31q0 24 14 38t39 14h223q22 0 33.5 -10.5t11.5 -28.5q0 -26 -14 -40.5t-39 -14.5h-223q-22 0 -33.5 11z" />
    <glyph glyph-name="degree" unicode="&#xb0;" horiz-adv-x="385" 
d="M171 553q-33 17 -53.5 50t-20.5 79q0 49 22.5 86.5t58.5 57t77 19.5q38 0 71.5 -17t54 -50.5t20.5 -78.5q0 -50 -22.5 -87t-59 -56.5t-77.5 -19.5q-38 0 -71 17zM291.5 641.5q18.5 20.5 18.5 53.5q0 29 -17.5 47t-41.5 18q-26 0 -45 -20t-19 -53q0 -30 18 -48t41 -18
q27 0 45.5 20.5z" />
    <glyph glyph-name="plusminus" unicode="&#xb1;" horiz-adv-x="700" 
d="M589 411q12 -14 12 -34q0 -25 -16.5 -45.5t-44.5 -20.5h-123l-13 -103q-4 -26 -22.5 -40t-42.5 -14q-23 0 -37.5 14t-11.5 40l13 103h-123q-23 0 -35 14.5t-12 34.5q0 25 16.5 45t44.5 20h122l13 103q3 25 21.5 39t41.5 14q24 0 39.5 -14t11.5 -39l-13 -103h124
q23 0 35 -14zM550 100q12 -14 12 -34q0 -25 -16.5 -45.5t-44.5 -20.5h-360q-23 0 -35 14.5t-12 34.5q0 25 16.5 45t44.5 20h360q23 0 35 -14z" />
    <glyph glyph-name="uni00B2" unicode="&#xb2;" horiz-adv-x="450" 
d="M443.5 444.5q9.5 -12.5 9.5 -30.5q0 -23 -14 -41t-37 -18q-20 0 -59 2t-60 3q-94 6 -125 6q-7 0 -18 -3t-15 -4q-24 -8 -36 -8q-13 0 -22 12.5t-9 36.5q0 26 13 40.5t39 26.5q57 25 105 64t77 84t29 86q0 28 -13.5 43t-39.5 15q-37 0 -59 -19t-22 -52q0 -49 -49 -49
q-24 0 -37 13t-13 39q0 41 22 76.5t65.5 56.5t105.5 21q75 0 117.5 -38t42.5 -104q0 -62 -52.5 -129.5t-151.5 -119.5l180 3q17 0 26.5 -12.5z" />
    <glyph glyph-name="uni00B3" unicode="&#xb3;" horiz-adv-x="450" 
d="M413.5 561q29.5 -29 29.5 -74q0 -63 -55 -98t-136 -35q-91 0 -136.5 31.5t-45.5 79.5q0 27 13 42.5t36 15.5q19 0 27.5 -9t17.5 -33q7 -19 25 -30t56 -11q31 0 54 13t23 38q0 28 -21 41t-64 17q-17 1 -26 12.5t-9 26.5q0 20 7 29t25 12q51 9 74 32.5t23 56.5
q0 19 -14.5 30t-42.5 11q-68 0 -82 -50q-7 -23 -18 -32.5t-30 -9.5q-23 0 -35 13t-12 35q0 33 23 63t66.5 48.5t100.5 18.5q80 0 122.5 -31t42.5 -92q0 -40 -30.5 -74.5t-79.5 -51.5q42 -6 71.5 -35z" />
    <glyph glyph-name="acute" unicode="&#xb4;" horiz-adv-x="600" 
d="M278.5 542.5q-10.5 10.5 -10.5 25.5q0 7 5 19l93 208q9 20 23.5 29.5t32.5 9.5q25 0 44.5 -18t19.5 -45q0 -28 -22 -56l-129 -166q-13 -17 -32 -17q-14 0 -24.5 10.5z" />
    <glyph glyph-name="uni00B5" unicode="&#xb5;" horiz-adv-x="462" 
d="M43 -254q-15 11 -15 38q0 222 17 382q15 150 46 244q10 30 28 43t57 13q22 0 30.5 -7t8.5 -21q0 -8 -11 -54q-10 -37 -16 -67q-20 -105 -20 -140q0 -21 5 -29.5t16 -8.5q15 0 37.5 30t48 91t49.5 150q8 30 24.5 43t49.5 13q23 0 32 -5.5t9 -20.5q0 -25 -25 -137
q-28 -128 -28 -158q0 -19 8 -29.5t21 -10.5q20 0 47.5 24.5t73.5 79.5q12 14 27 14q13 0 20.5 -12t7.5 -33q0 -40 -19 -62q-43 -53 -92.5 -87t-112.5 -34q-48 0 -70.5 37t-22.5 104q-16 -67 -49 -103t-74 -38q-2 -53 -2 -126l1 -76q0 -32 -19 -45t-45 -13q-28 0 -43 11z" />
    <glyph glyph-name="paragraph" unicode="&#xb6;" horiz-adv-x="739" 
d="M252.5 10.5q-15.5 15.5 -15.5 44.5q0 32 9.5 97.5t28.5 176.5l4 26q3 25 11 61q1 11 5 31q-38 0 -84 21t-78.5 63t-32.5 101q0 106 89 162t241 56q91 0 148.5 -9t90 -35.5t32.5 -76.5q0 -19 -24 -159l-14 -82l-22 -131q-11 -67 -22.5 -155.5t-15.5 -136.5
q-3 -37 -21 -53.5t-52 -16.5q-67 0 -67 60q0 32 9.5 97.5t28.5 176.5l4 26l23 131q9 54 26 181q1 4 1 12q0 37 -33 37h-43q-16 -69 -42 -228l-22 -131q-11 -67 -22.5 -155.5t-15.5 -136.5q-3 -37 -21 -53.5t-52 -16.5q-36 0 -51.5 15.5z" />
    <glyph glyph-name="periodcentered" unicode="&#xb7;" horiz-adv-x="257" 
d="M69.5 171q-22.5 24 -22.5 63q0 45 25.5 72t71.5 27q44 0 66.5 -21.5t22.5 -63.5q0 -46 -26 -73.5t-71 -27.5q-44 0 -66.5 24z" />
    <glyph glyph-name="cedilla" unicode="&#xb8;" horiz-adv-x="600" 
d="M97 -245q-39 7 -39 44q0 45 40 45q8 0 13 -1q27 -4 53 -4q40 0 62.5 16.5t22.5 50.5q0 25 -21.5 39.5t-58.5 14.5q-26 0 -40 7t-14 24q0 6 1 9q4 20 16 29.5t37 9.5h26q69 0 110 -33t41 -92q0 -47 -22.5 -84.5t-65 -58.5t-99.5 -21q-38 0 -62 5z" />
    <glyph glyph-name="uni00B9" unicode="&#xb9;" horiz-adv-x="450" 
d="M222 367.5q-16 14.5 -13 46.5q9 86 22 179t22 143l-105 -31q-8 -2 -11 -2q-16 0 -25 15.5t-7 33.5q2 15 12 25.5t42 23t99 30.5l35 9q17 5 37 5q50 0 50 -49q0 -5 -2 -21q-13 -64 -51 -370q-6 -52 -66 -52q-23 0 -39 14.5z" />
    <glyph glyph-name="ordmasculine" unicode="&#xba;" horiz-adv-x="408" 
d="M154.5 475.5q-35.5 24.5 -53.5 64.5t-18 86q0 64 24 114t66 77.5t95 27.5q52 0 88 -24.5t54 -64.5t18 -86q0 -63 -24.5 -113t-67 -78t-94.5 -28t-87.5 24.5zM298.5 572q19.5 31 19.5 90q0 46 -16.5 69.5t-39.5 23.5q-30 0 -49.5 -30.5t-19.5 -90.5q0 -48 16.5 -70.5
t41.5 -22.5q28 0 47.5 31z" />
    <glyph glyph-name="guillemotright" unicode="&#xbb;" horiz-adv-x="615" 
d="M100 42q-23 0 -39.5 16t-16.5 37q0 25 24 41l129 89l-130 111q-15 12 -15 30q0 21 20.5 39t44.5 18q18 0 29 -10l140 -119q38 -32 38 -66q0 -21 -7 -39t-21 -27l-160 -108q-18 -12 -36 -12zM366 42q-23 0 -39.5 16.5t-16.5 37.5q0 24 23 40l129 89l-130 111
q-15 12 -15 30q0 21 20.5 39t44.5 18q18 0 29 -10l141 -119q37 -31 37 -66q0 -21 -7 -39t-21 -27l-159 -108q-18 -12 -36 -12z" />
    <glyph glyph-name="onequarter" unicode="&#xbc;" horiz-adv-x="955" 
d="M222 367.5q-16 14.5 -13 46.5q9 86 22 179t22 143l-105 -31q-8 -2 -11 -2q-16 0 -25 15.5t-7 33.5q2 15 12 25.5t42 23t99 30.5l35 9q17 5 37 5q50 0 50 -49q0 -5 -2 -21q-13 -64 -51 -370q-6 -52 -66 -52q-23 0 -39 14.5zM299 116q-17 16 -17 40q0 17 12 38l301 497
q22 37 54 37q21 0 37 -17t16 -40q0 -16 -9 -31l-312 -514q-16 -26 -43 -26q-22 0 -39 16zM919 176q10 -10 10 -30q0 -31 -16.5 -43.5t-52.5 -12.5h-12q-2 -14 -4 -44q-2 -38 -17 -51.5t-49 -13.5q-44 0 -44 54l1 14l4 41q-44 1 -143 1q-19 0 -34.5 17.5t-15.5 44.5
q0 17 5 31q34 100 110 243q15 29 32 41t54 12q18 0 27.5 -8t9.5 -22q0 -12 -8 -28l-18 -33q-36 -69 -57.5 -113t-38.5 -90h88q12 86 27 142q7 27 22 40.5t42 13.5q47 0 47 -37q0 -5 -2 -17q-15 -69 -26 -142h26q23 0 33 -10z" />
    <glyph glyph-name="onehalf" unicode="&#xbd;" horiz-adv-x="1024" 
d="M222 367.5q-16 14.5 -13 46.5q9 86 22 179t22 143l-105 -31q-8 -2 -11 -2q-16 0 -25 15.5t-7 33.5q2 15 12 25.5t42 23t99 30.5l35 9q17 5 37 5q50 0 50 -49q0 -5 -2 -21q-13 -64 -51 -370q-6 -52 -66 -52q-23 0 -39 14.5zM299 116q-17 16 -17 40q0 17 12 38l301 497
q22 37 54 37q21 0 37 -17t16 -40q0 -16 -9 -31l-312 -514q-16 -26 -43 -26q-22 0 -39 16zM973.5 79.5q9.5 -12.5 9.5 -30.5q0 -23 -14 -41t-37 -18q-20 0 -59 2t-60 3q-94 6 -125 6q-7 0 -18 -3t-15 -4q-24 -8 -36 -8q-13 0 -22 12.5t-9 36.5q0 26 13 40.5t39 26.5
q57 25 105 64t77 84t29 86q0 28 -13.5 43t-39.5 15q-37 0 -59 -19t-22 -52q0 -49 -49 -49q-24 0 -37 13t-13 39q0 41 22 76.5t65.5 56.5t105.5 21q75 0 117.5 -38t42.5 -104q0 -62 -52.5 -129.5t-151.5 -119.5l180 3q17 0 26.5 -12.5z" />
    <glyph glyph-name="threequarters" unicode="&#xbe;" horiz-adv-x="1035" 
d="M413.5 561q29.5 -29 29.5 -74q0 -63 -55 -98t-136 -35q-91 0 -136.5 31.5t-45.5 79.5q0 27 13 42.5t36 15.5q19 0 27.5 -9t17.5 -33q7 -19 25 -30t56 -11q31 0 54 13t23 38q0 28 -21 41t-64 17q-17 1 -26 12.5t-9 26.5q0 20 7 29t25 12q51 9 74 32.5t23 56.5
q0 19 -14.5 30t-42.5 11q-68 0 -82 -50q-7 -23 -18 -32.5t-30 -9.5q-23 0 -35 13t-12 35q0 33 23 63t66.5 48.5t100.5 18.5q80 0 122.5 -31t42.5 -92q0 -40 -30.5 -74.5t-79.5 -51.5q42 -6 71.5 -35zM379 116q-17 16 -17 40q0 17 12 38l301 497q22 37 54 37q21 0 37 -17
t16 -40q0 -16 -9 -31l-312 -514q-16 -26 -43 -26q-22 0 -39 16zM999 176q10 -10 10 -30q0 -31 -16.5 -43.5t-52.5 -12.5h-12q-2 -14 -4 -44q-2 -38 -17 -51.5t-49 -13.5q-44 0 -44 54l1 14l4 41q-44 1 -143 1q-19 0 -34.5 17.5t-15.5 44.5q0 17 5 31q34 100 110 243
q15 29 32 41t54 12q18 0 27.5 -8t9.5 -22q0 -12 -8 -28l-18 -33q-36 -69 -57.5 -113t-38.5 -90h88q12 86 27 142q7 27 22 40.5t42 13.5q47 0 47 -37q0 -5 -2 -17q-15 -69 -26 -142h26q23 0 33 -10z" />
    <glyph glyph-name="questiondown" unicode="&#xbf;" horiz-adv-x="476" 
d="M248.5 300.5q-22.5 21.5 -22.5 63.5q0 46 26 73.5t71 27.5q44 0 66.5 -24t22.5 -63q0 -45 -25.5 -72t-71.5 -27q-44 0 -66.5 21.5zM10.5 -342.5q-54.5 42.5 -54.5 122.5q0 63 32 114t96 106q54 46 82 75t40.5 50.5t20.5 49.5q7 26 22.5 38.5t35.5 12.5q18 0 29 -10.5
t10 -34.5q-4 -63 -30 -112t-87 -110q-57 -56 -82 -95t-25 -81q0 -69 77 -69q46 0 70 20.5t24 51.5l-1 41q0 17 12.5 29.5t39.5 12.5q31 0 47.5 -18.5t16.5 -52.5q0 -50 -24.5 -91.5t-74.5 -66.5t-123 -25q-99 0 -153.5 42.5z" />
    <glyph glyph-name="Agrave" unicode="&#xc0;" horiz-adv-x="786" 
d="M175.5 29q-55.5 34 -87.5 98.5t-32 152.5q0 152 65 281.5t192 208t305 78.5q46 0 98.5 -7t95.5 -21q28 -8 28 -40q0 -26 -19.5 -49t-45.5 -23q-8 0 -12 1q-52 12 -89 17.5t-78 5.5q-127 0 -216 -61.5t-133 -162.5t-44 -218q0 -85 33.5 -131.5t87.5 -46.5q61 0 107 50
t84 162t75 304q6 28 24 38t48 10q71 0 71 -46q0 -8 -3 -20q-26 -97 -47.5 -214.5t-21.5 -178.5q0 -54 16 -78.5t49 -24.5q32 0 61 21.5t73 73.5q12 14 27 14q13 0 20.5 -12t7.5 -33q0 -39 -19 -62q-49 -59 -96 -90t-115 -31q-70 0 -113 40.5t-54 114.5q-74 -155 -218 -155
q-69 0 -124.5 34zM566 917l-187 97q-53 28 -53 71q0 26 19 44.5t45 18.5q24 0 44 -17l172 -147q19 -16 19 -36q0 -15 -11 -25.5t-27 -10.5q-12 0 -21 5z" />
    <glyph glyph-name="Aacute" unicode="&#xc1;" horiz-adv-x="786" 
d="M175.5 29q-55.5 34 -87.5 98.5t-32 152.5q0 152 65 281.5t192 208t305 78.5q46 0 98.5 -7t95.5 -21q28 -8 28 -40q0 -26 -19.5 -49t-45.5 -23q-8 0 -12 1q-52 12 -89 17.5t-78 5.5q-127 0 -216 -61.5t-133 -162.5t-44 -218q0 -85 33.5 -131.5t87.5 -46.5q61 0 107 50
t84 162t75 304q6 28 24 38t48 10q71 0 71 -46q0 -8 -3 -20q-26 -97 -47.5 -214.5t-21.5 -178.5q0 -54 16 -78.5t49 -24.5q32 0 61 21.5t73 73.5q12 14 27 14q13 0 20.5 -12t7.5 -33q0 -39 -19 -62q-49 -59 -96 -90t-115 -31q-70 0 -113 40.5t-54 114.5q-74 -155 -218 -155
q-69 0 -124.5 34zM573 922.5q-11 10.5 -11 25.5q0 20 19 36l172 147q20 17 44 17q26 0 45 -18.5t19 -44.5q0 -43 -53 -71l-187 -97q-9 -5 -21 -5q-16 0 -27 10.5z" />
    <glyph glyph-name="Acircumflex" unicode="&#xc2;" horiz-adv-x="786" 
d="M175.5 29q-55.5 34 -87.5 98.5t-32 152.5q0 152 65 281.5t192 208t305 78.5q46 0 98.5 -7t95.5 -21q28 -8 28 -40q0 -26 -19.5 -49t-45.5 -23q-8 0 -12 1q-52 12 -89 17.5t-78 5.5q-127 0 -216 -61.5t-133 -162.5t-44 -218q0 -85 33.5 -131.5t87.5 -46.5q61 0 107 50
t84 162t75 304q6 28 24 38t48 10q71 0 71 -46q0 -8 -3 -20q-26 -97 -47.5 -214.5t-21.5 -178.5q0 -54 16 -78.5t49 -24.5q32 0 61 21.5t73 73.5q12 14 27 14q13 0 20.5 -12t7.5 -33q0 -39 -19 -62q-49 -59 -96 -90t-115 -31q-70 0 -113 40.5t-54 114.5q-74 -155 -218 -155
q-69 0 -124.5 34zM624 1093l-80 -142q-11 -20 -29 -30t-37 -10q-21 0 -36 11.5t-15 30.5q0 17 13 37l92 137q37 56 105 56q31 0 49.5 -16t33.5 -53l47 -121q6 -15 6 -28q0 -24 -17 -38.5t-40 -14.5q-17 0 -31.5 9.5t-19.5 26.5z" />
    <glyph glyph-name="Atilde" unicode="&#xc3;" horiz-adv-x="786" 
d="M175.5 29q-55.5 34 -87.5 98.5t-32 152.5q0 152 65 281.5t192 208t305 78.5q46 0 98.5 -7t95.5 -21q28 -8 28 -40q0 -26 -19.5 -49t-45.5 -23q-8 0 -12 1q-52 12 -89 17.5t-78 5.5q-127 0 -216 -61.5t-133 -162.5t-44 -218q0 -85 33.5 -131.5t87.5 -46.5q61 0 107 50
t84 162t75 304q6 28 24 38t48 10q71 0 71 -46q0 -8 -3 -20q-26 -97 -47.5 -214.5t-21.5 -178.5q0 -54 16 -78.5t49 -24.5q32 0 61 21.5t73 73.5q12 14 27 14q13 0 20.5 -12t7.5 -33q0 -39 -19 -62q-49 -59 -96 -90t-115 -31q-70 0 -113 40.5t-54 114.5q-74 -155 -218 -155
q-69 0 -124.5 34zM671 917.5q-14 5.5 -36 20.5l-107 74l-44 -63q-8 -11 -20.5 -16.5t-25.5 -5.5q-19 0 -32.5 10t-13.5 29q0 27 37 81q44 64 97 64q17 0 30.5 -5t35.5 -21l107 -74l44 63q8 11 20.5 16.5t25.5 5.5q19 0 32.5 -10t13.5 -29q0 -13 -8 -29.5t-29 -51.5
q-20 -33 -45 -48.5t-52 -15.5q-16 0 -30 5.5z" />
    <glyph glyph-name="Adieresis" unicode="&#xc4;" horiz-adv-x="786" 
d="M175.5 29q-55.5 34 -87.5 98.5t-32 152.5q0 152 65 281.5t192 208t305 78.5q46 0 98.5 -7t95.5 -21q28 -8 28 -40q0 -26 -19.5 -49t-45.5 -23q-8 0 -12 1q-52 12 -89 17.5t-78 5.5q-127 0 -216 -61.5t-133 -162.5t-44 -218q0 -85 33.5 -131.5t87.5 -46.5q61 0 107 50
t84 162t75 304q6 28 24 38t48 10q71 0 71 -46q0 -8 -3 -20q-26 -97 -47.5 -214.5t-21.5 -178.5q0 -54 16 -78.5t49 -24.5q32 0 61 21.5t73 73.5q12 14 27 14q13 0 20.5 -12t7.5 -33q0 -39 -19 -62q-49 -59 -96 -90t-115 -31q-70 0 -113 40.5t-54 114.5q-74 -155 -218 -155
q-69 0 -124.5 34zM450 930.5q-19 18.5 -19 55.5q0 41 22 64t59 23q32 0 51 -18.5t19 -55.5q0 -41 -22 -64t-59 -23q-32 0 -51 18.5zM658 930.5q-19 18.5 -19 55.5q0 41 22 64t59 23q32 0 51 -18.5t19 -55.5q0 -41 -22 -64t-59 -23q-32 0 -51 18.5z" />
    <glyph glyph-name="Aring" unicode="&#xc5;" horiz-adv-x="786" 
d="M175.5 29q-55.5 34 -87.5 98.5t-32 152.5q0 152 65 281.5t192 208t305 78.5q46 0 98.5 -7t95.5 -21q28 -8 28 -40q0 -26 -19.5 -49t-45.5 -23q-8 0 -12 1q-52 12 -89 17.5t-78 5.5q-127 0 -216 -61.5t-133 -162.5t-44 -218q0 -85 33.5 -131.5t87.5 -46.5q61 0 107 50
t84 162t75 304q6 28 24 38t48 10q71 0 71 -46q0 -8 -3 -20q-26 -97 -47.5 -214.5t-21.5 -178.5q0 -54 16 -78.5t49 -24.5q32 0 61 21.5t73 73.5q12 14 27 14q13 0 20.5 -12t7.5 -33q0 -39 -19 -62q-49 -59 -96 -90t-115 -31q-70 0 -113 40.5t-54 114.5q-74 -155 -218 -155
q-69 0 -124.5 34zM520 947.5q-38 35.5 -38 96.5q0 45 19.5 78.5t52 51.5t69.5 18q53 0 91 -35.5t38 -96.5q0 -45 -19.5 -78.5t-52 -51.5t-69.5 -18q-53 0 -91 35.5zM649 1015q14 15 14 40q0 22 -13 35.5t-31 13.5q-20 0 -34 -15t-14 -40q0 -22 13 -35.5t31 -13.5q20 0 34 15
z" />
    <glyph glyph-name="AE" unicode="&#xc6;" horiz-adv-x="1015" 
d="M1111 187q14 0 22 -11.5t8 -29.5q0 -23 -9.5 -41.5t-32.5 -35.5q-45 -32 -118.5 -53t-141.5 -21q-123 0 -195 48.5t-94 129.5q-79 -178 -238 -178q-75 0 -133 34t-90.5 98.5t-32.5 152.5q0 146 58.5 268.5t162.5 200t234 93.5q8 1 21 1q65 0 65 -63q0 -21 -9.5 -34.5
t-28.5 -15.5q-114 -13 -194.5 -74t-121 -156.5t-40.5 -209.5q0 -85 33.5 -131.5t87.5 -46.5q83 0 133.5 82.5t92.5 236.5l81 296q15 55 49.5 83t85.5 30l52 3q126 6 198 6q36 0 50 -12.5t14 -41.5q0 -31 -18 -53t-54 -22q-67 0 -137.5 -3t-102.5 -7q-24 -72 -58 -227
q46 2 66 2q107 5 181 5q30 0 41.5 -12.5t11.5 -36.5q0 -31 -17.5 -51.5t-48.5 -21.5l-113 -3q-52 -2 -145 -4q-11 -49 -11 -87q0 -159 187 -159q52 0 106 16.5t123 50.5q9 5 20 5z" />
    <glyph glyph-name="Ccedilla" unicode="&#xc7;" horiz-adv-x="686" 
d="M780 188q16 0 24 -12t8 -31q0 -61 -66 -90q-129 -56 -280 -60q30 -32 30 -81q0 -75 -51.5 -121.5t-139.5 -46.5q-38 0 -62 5q-20 4 -29.5 15t-9.5 32q0 24 10 35t30 11q8 0 13 -1q27 -4 53 -4q40 0 62.5 16.5t22.5 50.5q0 25 -21.5 39.5t-58.5 14.5q-26 0 -40 7t-14 24
q0 22 13 35q-100 39 -155 123t-55 199q0 147 55.5 261t150.5 176.5t211 62.5q108 0 164 -55.5t56 -146.5q0 -61 -21.5 -98t-61.5 -37q-28 0 -44 13t-16 38q0 9 4 33q6 30 6 48q0 91 -97 91q-66 0 -126 -43t-97 -126.5t-37 -198.5q0 -120 67 -185.5t198 -65.5
q65 0 131.5 16.5t147.5 50.5q15 6 25 6z" />
    <glyph glyph-name="Egrave" unicode="&#xc8;" horiz-adv-x="686" 
d="M780 188q16 0 24 -12t8 -31q0 -30 -14.5 -51t-49.5 -38q-59 -28 -153 -44.5t-185 -16.5q-126 0 -211 28.5t-126.5 78.5t-41.5 113q0 86 55.5 146.5t163.5 87.5q-59 17 -90.5 60t-31.5 96q0 72 45.5 127.5t122.5 85.5t169 30q124 0 186 -53.5t62 -138.5q0 -59 -21.5 -95.5
t-61.5 -36.5q-28 0 -44 12.5t-16 37.5q0 17 5 37q5 33 5 45q0 36 -27 58.5t-90 22.5q-85 0 -136 -36t-51 -97q0 -47 38.5 -77.5t125.5 -33.5q22 -1 31 -10t9 -30q0 -66 -60 -67q-83 -2 -137.5 -23t-79 -53.5t-24.5 -69.5q0 -62 58 -93.5t184 -31.5q83 0 175.5 19.5
t158.5 47.5q15 6 25 6zM440 917l-187 97q-53 28 -53 71q0 26 19 44.5t45 18.5q24 0 44 -17l172 -147q19 -16 19 -36q0 -15 -11 -25.5t-27 -10.5q-12 0 -21 5z" />
    <glyph glyph-name="Eacute" unicode="&#xc9;" horiz-adv-x="686" 
d="M780 188q16 0 24 -12t8 -31q0 -30 -14.5 -51t-49.5 -38q-59 -28 -153 -44.5t-185 -16.5q-126 0 -211 28.5t-126.5 78.5t-41.5 113q0 86 55.5 146.5t163.5 87.5q-59 17 -90.5 60t-31.5 96q0 72 45.5 127.5t122.5 85.5t169 30q124 0 186 -53.5t62 -138.5q0 -59 -21.5 -95.5
t-61.5 -36.5q-28 0 -44 12.5t-16 37.5q0 17 5 37q5 33 5 45q0 36 -27 58.5t-90 22.5q-85 0 -136 -36t-51 -97q0 -47 38.5 -77.5t125.5 -33.5q22 -1 31 -10t9 -30q0 -66 -60 -67q-83 -2 -137.5 -23t-79 -53.5t-24.5 -69.5q0 -62 58 -93.5t184 -31.5q83 0 175.5 19.5
t158.5 47.5q15 6 25 6zM447 922.5q-11 10.5 -11 25.5q0 20 19 36l172 147q20 17 44 17q26 0 45 -18.5t19 -44.5q0 -43 -53 -71l-187 -97q-9 -5 -21 -5q-16 0 -27 10.5z" />
    <glyph glyph-name="Ecircumflex" unicode="&#xca;" horiz-adv-x="686" 
d="M780 188q16 0 24 -12t8 -31q0 -30 -14.5 -51t-49.5 -38q-59 -28 -153 -44.5t-185 -16.5q-126 0 -211 28.5t-126.5 78.5t-41.5 113q0 86 55.5 146.5t163.5 87.5q-59 17 -90.5 60t-31.5 96q0 72 45.5 127.5t122.5 85.5t169 30q124 0 186 -53.5t62 -138.5q0 -59 -21.5 -95.5
t-61.5 -36.5q-28 0 -44 12.5t-16 37.5q0 17 5 37q5 33 5 45q0 36 -27 58.5t-90 22.5q-85 0 -136 -36t-51 -97q0 -47 38.5 -77.5t125.5 -33.5q22 -1 31 -10t9 -30q0 -66 -60 -67q-83 -2 -137.5 -23t-79 -53.5t-24.5 -69.5q0 -62 58 -93.5t184 -31.5q83 0 175.5 19.5
t158.5 47.5q15 6 25 6zM498 1093l-80 -142q-11 -20 -29 -30t-37 -10q-21 0 -36 11.5t-15 30.5q0 17 13 37l92 137q37 56 105 56q31 0 49.5 -16t33.5 -53l47 -121q6 -15 6 -28q0 -24 -17 -38.5t-40 -14.5q-17 0 -31.5 9.5t-19.5 26.5z" />
    <glyph glyph-name="Edieresis" unicode="&#xcb;" horiz-adv-x="686" 
d="M780 188q16 0 24 -12t8 -31q0 -30 -14.5 -51t-49.5 -38q-59 -28 -153 -44.5t-185 -16.5q-126 0 -211 28.5t-126.5 78.5t-41.5 113q0 86 55.5 146.5t163.5 87.5q-59 17 -90.5 60t-31.5 96q0 72 45.5 127.5t122.5 85.5t169 30q124 0 186 -53.5t62 -138.5q0 -59 -21.5 -95.5
t-61.5 -36.5q-28 0 -44 12.5t-16 37.5q0 17 5 37q5 33 5 45q0 36 -27 58.5t-90 22.5q-85 0 -136 -36t-51 -97q0 -47 38.5 -77.5t125.5 -33.5q22 -1 31 -10t9 -30q0 -66 -60 -67q-83 -2 -137.5 -23t-79 -53.5t-24.5 -69.5q0 -62 58 -93.5t184 -31.5q83 0 175.5 19.5
t158.5 47.5q15 6 25 6zM324 930.5q-19 18.5 -19 55.5q0 41 22 64t59 23q32 0 51 -18.5t19 -55.5q0 -41 -22 -64t-59 -23q-32 0 -51 18.5zM532 930.5q-19 18.5 -19 55.5q0 41 22 64t59 23q32 0 51 -18.5t19 -55.5q0 -41 -22 -64t-59 -23q-32 0 -51 18.5z" />
    <glyph glyph-name="Igrave" unicode="&#xcc;" horiz-adv-x="495" 
d="M538 829.5q18 -12.5 18 -30.5q0 -32 -20 -51.5t-57 -19.5q-58 0 -88 -1l-18 -108q-18 -107 -22 -131l-21 -131q-22 -147 -35 -246q21 1 57 1q53 0 72 -14t19 -42q0 -26 -20.5 -44t-57.5 -18q-25 0 -79 2q-50 2 -66 2q-63 0 -138 -11q-33 -5 -47 -5q-22 0 -37 12t-15 35
q0 36 32 56t90 21l47 1l3 22q24 160 35 226l22 131q20 116 36 239l-84 -1q-36 0 -49.5 11.5t-13.5 32.5q0 68 98 73q46 2 112 2l183 -1q26 0 44 -12.5zM312 917l-187 97q-53 28 -53 71q0 26 19 44.5t45 18.5q24 0 44 -17l172 -147q19 -16 19 -36q0 -15 -11 -25.5t-27 -10.5
q-12 0 -21 5z" />
    <glyph glyph-name="Iacute" unicode="&#xcd;" horiz-adv-x="495" 
d="M538 829.5q18 -12.5 18 -30.5q0 -32 -20 -51.5t-57 -19.5q-58 0 -88 -1l-18 -108q-18 -107 -22 -131l-21 -131q-22 -147 -35 -246q21 1 57 1q53 0 72 -14t19 -42q0 -26 -20.5 -44t-57.5 -18q-25 0 -79 2q-50 2 -66 2q-63 0 -138 -11q-33 -5 -47 -5q-22 0 -37 12t-15 35
q0 36 32 56t90 21l47 1l3 22q24 160 35 226l22 131q20 116 36 239l-84 -1q-36 0 -49.5 11.5t-13.5 32.5q0 68 98 73q46 2 112 2l183 -1q26 0 44 -12.5zM319 922.5q-11 10.5 -11 25.5q0 20 19 36l172 147q20 17 44 17q26 0 45 -18.5t19 -44.5q0 -43 -53 -71l-187 -97
q-9 -5 -21 -5q-16 0 -27 10.5z" />
    <glyph glyph-name="Icircumflex" unicode="&#xce;" horiz-adv-x="495" 
d="M538 829.5q18 -12.5 18 -30.5q0 -32 -20 -51.5t-57 -19.5q-58 0 -88 -1l-18 -108q-18 -107 -22 -131l-21 -131q-22 -147 -35 -246q21 1 57 1q53 0 72 -14t19 -42q0 -26 -20.5 -44t-57.5 -18q-25 0 -79 2q-50 2 -66 2q-63 0 -138 -11q-33 -5 -47 -5q-22 0 -37 12t-15 35
q0 36 32 56t90 21l47 1l3 22q24 160 35 226l22 131q20 116 36 239l-84 -1q-36 0 -49.5 11.5t-13.5 32.5q0 68 98 73q46 2 112 2l183 -1q26 0 44 -12.5zM370 1093l-80 -142q-11 -20 -29 -30t-37 -10q-21 0 -36 11.5t-15 30.5q0 17 13 37l92 137q37 56 105 56q31 0 49.5 -16
t33.5 -53l47 -121q6 -15 6 -28q0 -24 -17 -38.5t-40 -14.5q-17 0 -31.5 9.5t-19.5 26.5z" />
    <glyph glyph-name="Idieresis" unicode="&#xcf;" horiz-adv-x="495" 
d="M538 829.5q18 -12.5 18 -30.5q0 -32 -20 -51.5t-57 -19.5q-58 0 -88 -1l-18 -108q-18 -107 -22 -131l-21 -131q-22 -147 -35 -246q21 1 57 1q53 0 72 -14t19 -42q0 -26 -20.5 -44t-57.5 -18q-25 0 -79 2q-50 2 -66 2q-63 0 -138 -11q-33 -5 -47 -5q-22 0 -37 12t-15 35
q0 36 32 56t90 21l47 1l3 22q24 160 35 226l22 131q20 116 36 239l-84 -1q-36 0 -49.5 11.5t-13.5 32.5q0 68 98 73q46 2 112 2l183 -1q26 0 44 -12.5zM196 930.5q-19 18.5 -19 55.5q0 41 22 64t59 23q32 0 51 -18.5t19 -55.5q0 -41 -22 -64t-59 -23q-32 0 -51 18.5z
M404 930.5q-19 18.5 -19 55.5q0 41 22 64t59 23q32 0 51 -18.5t19 -55.5q0 -41 -22 -64t-59 -23q-32 0 -51 18.5z" />
    <glyph glyph-name="Eth" unicode="&#xd0;" horiz-adv-x="821" 
d="M628.5 814.5q85.5 -45.5 130 -128t44.5 -192.5q0 -143 -60.5 -256.5t-175.5 -178t-273 -64.5q-66 0 -139 10q-39 5 -54 21t-12 52q13 138 45 305h-69q-50 0 -50 46q0 41 29.5 58.5t93.5 17.5h23q36 155 82 293q7 20 17.5 32.5t30.5 17.5q49 12 133 12q119 0 204.5 -45.5z
M502.5 159.5q78.5 51.5 116 137.5t37.5 192q0 129 -67 194t-178 65q-33 0 -44 -1q-33 -100 -67 -243q29 -1 91 -1q64 0 86.5 -13t22.5 -42q0 -31 -13 -49t-50 -18q-32 0 -110 2l-52 1q-30 -150 -41 -273q31 -3 73 -3q117 0 195.5 51.5z" />
    <glyph glyph-name="Ntilde" unicode="&#xd1;" horiz-adv-x="884" 
d="M179 11.5q-16 16.5 -16 62.5q0 31 6 75t21 133q2 12 16 97.5t25 179.5q10 80 10 120q0 45 -33 45q-25 0 -62.5 -26.5t-80.5 -84.5q-14 -19 -31 -19q-14 0 -24.5 13.5t-10.5 30.5t6 32.5t22 37.5q49 67 109 103.5t126 36.5q55 0 82.5 -34t27.5 -99q0 -58 -16 -168
q50 148 127 224.5t181 76.5q82 0 123.5 -46.5t41.5 -124.5q0 -44 -13 -107l-61 -286q-10 -50 -10 -86q0 -42 19.5 -63t54.5 -21q33 0 64.5 22t74.5 73q12 14 27 14q13 0 20.5 -12t7.5 -33q0 -39 -19 -62q-52 -63 -103 -92t-107 -29q-85 0 -133 50.5t-48 135.5q0 33 5.5 72
t18.5 99l40 183q2 9 7 32t8 43.5t3 40.5q0 32 -18 51t-51 19q-60 0 -120 -64t-111 -206.5t-80 -364.5q-7 -51 -20.5 -71t-52.5 -20q-37 0 -53 16.5zM630 917.5q-14 5.5 -36 20.5l-107 74l-44 -63q-8 -11 -20.5 -16.5t-25.5 -5.5q-19 0 -32.5 10t-13.5 29q0 27 37 81
q44 64 97 64q17 0 30.5 -5t35.5 -21l107 -74l44 63q8 11 20.5 16.5t25.5 5.5q19 0 32.5 -10t13.5 -29q0 -13 -8 -29.5t-29 -51.5q-20 -33 -45 -48.5t-52 -15.5q-16 0 -30 5.5z" />
    <glyph glyph-name="Ograve" unicode="&#xd2;" horiz-adv-x="816" 
d="M219.5 35q-71.5 40 -113.5 117.5t-42 185.5q0 152 55.5 268t151 179t211.5 63q89 0 160.5 -40t113.5 -117.5t42 -185.5q0 -152 -55.5 -268t-151 -179t-211.5 -63q-89 0 -160.5 40zM527.5 161q59.5 48 91.5 133.5t32 193.5q0 119 -50 180.5t-129 61.5q-77 0 -136 -47.5
t-92 -133t-33 -194.5q0 -119 50 -180.5t129 -61.5q78 0 137.5 48zM456 912l-187 97q-53 28 -53 71q0 26 19 44.5t45 18.5q24 0 44 -17l172 -147q19 -16 19 -36q0 -15 -11 -25.5t-27 -10.5q-12 0 -21 5z" />
    <glyph glyph-name="Oacute" unicode="&#xd3;" horiz-adv-x="816" 
d="M219.5 35q-71.5 40 -113.5 117.5t-42 185.5q0 152 55.5 268t151 179t211.5 63q89 0 160.5 -40t113.5 -117.5t42 -185.5q0 -152 -55.5 -268t-151 -179t-211.5 -63q-89 0 -160.5 40zM527.5 161q59.5 48 91.5 133.5t32 193.5q0 119 -50 180.5t-129 61.5q-77 0 -136 -47.5
t-92 -133t-33 -194.5q0 -119 50 -180.5t129 -61.5q78 0 137.5 48zM463 917.5q-11 10.5 -11 25.5q0 20 19 36l172 147q20 17 44 17q26 0 45 -18.5t19 -44.5q0 -43 -53 -71l-187 -97q-9 -5 -21 -5q-16 0 -27 10.5z" />
    <glyph glyph-name="Ocircumflex" unicode="&#xd4;" horiz-adv-x="816" 
d="M219.5 35q-71.5 40 -113.5 117.5t-42 185.5q0 152 55.5 268t151 179t211.5 63q89 0 160.5 -40t113.5 -117.5t42 -185.5q0 -152 -55.5 -268t-151 -179t-211.5 -63q-89 0 -160.5 40zM527.5 161q59.5 48 91.5 133.5t32 193.5q0 119 -50 180.5t-129 61.5q-77 0 -136 -47.5
t-92 -133t-33 -194.5q0 -119 50 -180.5t129 -61.5q78 0 137.5 48zM514 1088l-80 -142q-11 -20 -29 -30t-37 -10q-21 0 -36 11.5t-15 30.5q0 17 13 37l92 137q37 56 105 56q31 0 49.5 -16t33.5 -53l47 -121q6 -15 6 -28q0 -24 -17 -38.5t-40 -14.5q-17 0 -31.5 9.5
t-19.5 26.5z" />
    <glyph glyph-name="Otilde" unicode="&#xd5;" horiz-adv-x="816" 
d="M219.5 35q-71.5 40 -113.5 117.5t-42 185.5q0 152 55.5 268t151 179t211.5 63q89 0 160.5 -40t113.5 -117.5t42 -185.5q0 -152 -55.5 -268t-151 -179t-211.5 -63q-89 0 -160.5 40zM527.5 161q59.5 48 91.5 133.5t32 193.5q0 119 -50 180.5t-129 61.5q-77 0 -136 -47.5
t-92 -133t-33 -194.5q0 -119 50 -180.5t129 -61.5q78 0 137.5 48zM561 912.5q-14 5.5 -36 20.5l-107 74l-44 -63q-8 -11 -20.5 -16.5t-25.5 -5.5q-19 0 -32.5 10t-13.5 29q0 27 37 81q44 64 97 64q17 0 30.5 -5t35.5 -21l107 -74l44 63q8 11 20.5 16.5t25.5 5.5
q19 0 32.5 -10t13.5 -29q0 -13 -8 -29.5t-29 -51.5q-20 -33 -45 -48.5t-52 -15.5q-16 0 -30 5.5z" />
    <glyph glyph-name="Odieresis" unicode="&#xd6;" horiz-adv-x="816" 
d="M219.5 35q-71.5 40 -113.5 117.5t-42 185.5q0 152 55.5 268t151 179t211.5 63q89 0 160.5 -40t113.5 -117.5t42 -185.5q0 -152 -55.5 -268t-151 -179t-211.5 -63q-89 0 -160.5 40zM527.5 161q59.5 48 91.5 133.5t32 193.5q0 119 -50 180.5t-129 61.5q-77 0 -136 -47.5
t-92 -133t-33 -194.5q0 -119 50 -180.5t129 -61.5q78 0 137.5 48zM340 925.5q-19 18.5 -19 55.5q0 41 22 64t59 23q32 0 51 -18.5t19 -55.5q0 -41 -22 -64t-59 -23q-32 0 -51 18.5zM548 925.5q-19 18.5 -19 55.5q0 41 22 64t59 23q32 0 51 -18.5t19 -55.5q0 -41 -22 -64
t-59 -23q-32 0 -51 18.5z" />
    <glyph glyph-name="multiply" unicode="&#xd7;" horiz-adv-x="700" 
d="M551 514q22 0 37.5 -16t15.5 -38q0 -25 -21 -43l-146 -130l114 -130q12 -15 12 -31q0 -25 -21.5 -45t-46.5 -20q-20 0 -35 16l-114 130l-144 -129q-19 -16 -39 -16q-21 0 -37 16t-16 37q0 24 22 43l144 129l-113 129q-12 15 -12 31q0 25 21 46t46 21q21 0 35 -17
l114 -130l146 131q19 16 38 16z" />
    <glyph glyph-name="Oslash" unicode="&#xd8;" horiz-adv-x="816" 
d="M742.5 713.5q55.5 -83.5 55.5 -208.5q0 -152 -55.5 -268t-151 -179t-211.5 -63h-7l-21 -79q-4 -14 -17.5 -21t-31.5 -7q-22 0 -39 11.5t-17 30.5q0 5 2 13l19 70q-93 32 -148.5 116t-55.5 209q0 152 55.5 268t151 179t211.5 63h7l19 73q4 14 17.5 21t31.5 7
q22 0 39.5 -11.5t17.5 -31.5q0 -5 -2 -13l-17 -63q92 -33 147.5 -116.5zM235 219q24 -55 66 -82l86 318l71 275q-73 -4 -129 -53.5t-87 -133t-31 -188.5q0 -81 24 -136zM534 166.5q56 49.5 86.5 133t30.5 188.5q0 81 -24 136t-66 82l-70 -255l-88 -338q75 4 131 53.5z" />
    <glyph glyph-name="Ugrave" unicode="&#xd9;" horiz-adv-x="890" 
d="M205 41.5q-43 46.5 -43 124.5q0 44 13 107l62 286q2 8 9.5 44t7.5 78q0 24 -9.5 36t-25.5 12q-30 0 -70 -28.5t-84 -87.5q-14 -19 -31 -19q-14 0 -24.5 13.5t-10.5 30.5q0 31 28 70q102 140 239 140q61 0 95.5 -37t34.5 -109q0 -51 -7 -94t-24 -117l-41 -183
q-2 -9 -7 -32t-8 -43.5t-3 -40.5q0 -32 18 -51t51 -19q60 0 121.5 64t114 206.5t81.5 364.5q7 51 20.5 71t52.5 20q35 0 52 -21t17 -68q0 -27 -6.5 -71t-19.5 -123q-27 -153 -43 -281q-8 -58 -8 -86q0 -41 18.5 -62.5t49.5 -21.5q33 0 64.5 22t74.5 73q12 14 27 14
q13 0 20.5 -12t7.5 -33q0 -39 -19 -62q-52 -63 -103 -92t-107 -29q-83 0 -127 42.5t-44 110.5q0 38 16 148q-50 -147 -126.5 -224t-176.5 -77q-84 0 -127 46.5zM507 917l-187 97q-53 28 -53 71q0 26 19 44.5t45 18.5q24 0 44 -17l172 -147q19 -16 19 -36q0 -15 -11 -25.5
t-27 -10.5q-12 0 -21 5z" />
    <glyph glyph-name="Uacute" unicode="&#xda;" horiz-adv-x="890" 
d="M205 41.5q-43 46.5 -43 124.5q0 44 13 107l62 286q2 8 9.5 44t7.5 78q0 24 -9.5 36t-25.5 12q-30 0 -70 -28.5t-84 -87.5q-14 -19 -31 -19q-14 0 -24.5 13.5t-10.5 30.5q0 31 28 70q102 140 239 140q61 0 95.5 -37t34.5 -109q0 -51 -7 -94t-24 -117l-41 -183
q-2 -9 -7 -32t-8 -43.5t-3 -40.5q0 -32 18 -51t51 -19q60 0 121.5 64t114 206.5t81.5 364.5q7 51 20.5 71t52.5 20q35 0 52 -21t17 -68q0 -27 -6.5 -71t-19.5 -123q-27 -153 -43 -281q-8 -58 -8 -86q0 -41 18.5 -62.5t49.5 -21.5q33 0 64.5 22t74.5 73q12 14 27 14
q13 0 20.5 -12t7.5 -33q0 -39 -19 -62q-52 -63 -103 -92t-107 -29q-83 0 -127 42.5t-44 110.5q0 38 16 148q-50 -147 -126.5 -224t-176.5 -77q-84 0 -127 46.5zM514 922.5q-11 10.5 -11 25.5q0 20 19 36l172 147q20 17 44 17q26 0 45 -18.5t19 -44.5q0 -43 -53 -71l-187 -97
q-9 -5 -21 -5q-16 0 -27 10.5z" />
    <glyph glyph-name="Ucircumflex" unicode="&#xdb;" horiz-adv-x="890" 
d="M205 41.5q-43 46.5 -43 124.5q0 44 13 107l62 286q2 8 9.5 44t7.5 78q0 24 -9.5 36t-25.5 12q-30 0 -70 -28.5t-84 -87.5q-14 -19 -31 -19q-14 0 -24.5 13.5t-10.5 30.5q0 31 28 70q102 140 239 140q61 0 95.5 -37t34.5 -109q0 -51 -7 -94t-24 -117l-41 -183
q-2 -9 -7 -32t-8 -43.5t-3 -40.5q0 -32 18 -51t51 -19q60 0 121.5 64t114 206.5t81.5 364.5q7 51 20.5 71t52.5 20q35 0 52 -21t17 -68q0 -27 -6.5 -71t-19.5 -123q-27 -153 -43 -281q-8 -58 -8 -86q0 -41 18.5 -62.5t49.5 -21.5q33 0 64.5 22t74.5 73q12 14 27 14
q13 0 20.5 -12t7.5 -33q0 -39 -19 -62q-52 -63 -103 -92t-107 -29q-83 0 -127 42.5t-44 110.5q0 38 16 148q-50 -147 -126.5 -224t-176.5 -77q-84 0 -127 46.5zM565 1093l-80 -142q-11 -20 -29 -30t-37 -10q-21 0 -36 11.5t-15 30.5q0 17 13 37l92 137q37 56 105 56
q31 0 49.5 -16t33.5 -53l47 -121q6 -15 6 -28q0 -24 -17 -38.5t-40 -14.5q-17 0 -31.5 9.5t-19.5 26.5z" />
    <glyph glyph-name="Udieresis" unicode="&#xdc;" horiz-adv-x="890" 
d="M205 41.5q-43 46.5 -43 124.5q0 44 13 107l62 286q2 8 9.5 44t7.5 78q0 24 -9.5 36t-25.5 12q-30 0 -70 -28.5t-84 -87.5q-14 -19 -31 -19q-14 0 -24.5 13.5t-10.5 30.5q0 31 28 70q102 140 239 140q61 0 95.5 -37t34.5 -109q0 -51 -7 -94t-24 -117l-41 -183
q-2 -9 -7 -32t-8 -43.5t-3 -40.5q0 -32 18 -51t51 -19q60 0 121.5 64t114 206.5t81.5 364.5q7 51 20.5 71t52.5 20q35 0 52 -21t17 -68q0 -27 -6.5 -71t-19.5 -123q-27 -153 -43 -281q-8 -58 -8 -86q0 -41 18.5 -62.5t49.5 -21.5q33 0 64.5 22t74.5 73q12 14 27 14
q13 0 20.5 -12t7.5 -33q0 -39 -19 -62q-52 -63 -103 -92t-107 -29q-83 0 -127 42.5t-44 110.5q0 38 16 148q-50 -147 -126.5 -224t-176.5 -77q-84 0 -127 46.5zM391 930.5q-19 18.5 -19 55.5q0 41 22 64t59 23q32 0 51 -18.5t19 -55.5q0 -41 -22 -64t-59 -23q-32 0 -51 18.5
zM599 930.5q-19 18.5 -19 55.5q0 41 22 64t59 23q32 0 51 -18.5t19 -55.5q0 -41 -22 -64t-59 -23q-32 0 -51 18.5z" />
    <glyph glyph-name="Yacute" unicode="&#xdd;" horiz-adv-x="851" 
d="M926 226q34 0 34 -44q0 -24 -10.5 -40.5t-32.5 -20.5q-91 -17 -179 -38l-3 -24q-28 -197 -111.5 -291.5t-208.5 -94.5q-83 0 -128.5 40.5t-45.5 103.5q0 105 94 187t285 145l20 141q4 24 10 64q-47 -124 -120 -185t-163 -61q-86 0 -131 52.5t-45 135.5q0 37 8 81.5
t25 120.5q15 69 22.5 110t7.5 73q0 48 -37 48q-29 0 -68.5 -28.5t-83.5 -87.5q-14 -19 -31 -19q-14 0 -24.5 13.5t-10.5 30.5q0 31 28 70q102 140 239 140q61 0 95.5 -37t34.5 -109q0 -52 -9.5 -106.5t-28.5 -138.5q-12 -50 -18 -80.5t-6 -50.5q0 -51 18 -73t63 -22
q54 0 110.5 59.5t102 180.5t65.5 296q5 44 23 62.5t52 18.5q70 0 70 -70q0 -12 -1 -19q-21 -149 -39 -269q-10 -72 -21.5 -148t-22.5 -154q73 20 154 36q6 2 18 2zM605 44q-242 -84 -242 -204q0 -28 17.5 -46.5t49.5 -18.5q139 0 174 262zM527 922.5q-11 10.5 -11 25.5
q0 20 19 36l172 147q20 17 44 17q26 0 45 -18.5t19 -44.5q0 -43 -53 -71l-187 -97q-9 -5 -21 -5q-16 0 -27 10.5z" />
    <glyph glyph-name="Thorn" unicode="&#xde;" horiz-adv-x="776" 
d="M738 360q-43 -67 -127 -109t-204 -46q-14 -79 -33 -175q-14 -71 -46 -105t-88 -34q-55 0 -100.5 39t-71.5 109.5t-26 162.5q0 133 36.5 239t105.5 176t163 98l24 170q3 27 26 40t51 13q34 0 48.5 -11.5t14.5 -35.5q0 -11 -1 -17l-19 -141q94 -2 159 -32t98 -80.5
t33 -114.5q0 -79 -43 -146zM584 368.5q47 50.5 47 118.5q0 61 -37.5 97.5t-118.5 40.5q-24 -167 -50 -317q112 10 159 60.5zM245 85q16 86 23 128q-6 0 -14 2q-30 5 -38 17.5t-8 33.5q0 24 11.5 37t33.5 13q10 0 15 -1l17 -3q26 157 45 287q-87 -40 -132 -140.5t-45 -251.5
q0 -69 15 -130t39 -61q25 0 38 69z" />
    <glyph glyph-name="germandbls" unicode="&#xdf;" horiz-adv-x="596" 
d="M722 199q0 -46 -30 -46q-12 0 -22 5q-54 23 -102 33q9 -22 9 -52q0 -69 -54 -109.5t-142 -40.5t-132 36.5t-44 89.5q0 44 29 80.5t80 58.5q-50 45 -50 105q0 43 25.5 76t84.5 73q41 27 60.5 50.5t19.5 53.5q0 34 -21.5 54t-59.5 20q-86 0 -137.5 -105.5t-58.5 -322.5
q-5 -184 -5 -347v-90q0 -19 -20.5 -30t-48.5 -11q-24 0 -42 9.5t-18 27.5q0 173 10 430q11 279 101.5 406.5t233.5 127.5q58 0 99.5 -21.5t63.5 -58.5t22 -82q0 -59 -27.5 -97.5t-79.5 -73.5q-39 -28 -53.5 -43.5t-14.5 -33.5q0 -21 16 -36.5t50 -37.5q16 -10 24 -16
q62 -2 114 -12t88 -25q32 -14 32 -45zM433 85.5q20 13.5 20 37.5q0 21 -14.5 37.5t-42.5 35.5q-38 -10 -57.5 -30.5t-19.5 -44.5q0 -20 17.5 -34.5t48.5 -14.5q28 0 48 13.5z" />
    <glyph glyph-name="agrave" unicode="&#xe0;" horiz-adv-x="470" 
d="M72 40q-37 45 -37 118q0 80 37 151.5t98.5 115t130.5 43.5q22 0 29.5 -8.5t12.5 -30.5q21 4 44 4q49 0 49 -35q0 -21 -15 -100q-23 -115 -23 -160q0 -15 7.5 -24t19.5 -9q19 0 46 24.5t73 79.5q12 14 27 14q13 0 20.5 -12t7.5 -33q0 -40 -19 -62q-41 -51 -87 -86t-89 -35
q-33 0 -60.5 22.5t-41.5 61.5q-52 -84 -131 -84q-62 0 -99 45zM249 122q20 26 29 69l37 184q-42 -1 -77.5 -31.5t-56.5 -80.5t-21 -106q0 -31 12.5 -46t34.5 -15t42 26zM279 549l-129 166q-22 28 -22 56t19.5 46t44.5 18q17 0 32 -10t24 -30l93 -208q4 -9 4 -19
q0 -15 -10.5 -25.5t-24.5 -10.5q-18 0 -31 17z" />
    <glyph glyph-name="aacute" unicode="&#xe1;" horiz-adv-x="470" 
d="M72 40q-37 45 -37 118q0 80 37 151.5t98.5 115t130.5 43.5q22 0 29.5 -8.5t12.5 -30.5q21 4 44 4q49 0 49 -35q0 -21 -15 -100q-23 -115 -23 -160q0 -15 7.5 -24t19.5 -9q19 0 46 24.5t73 79.5q12 14 27 14q13 0 20.5 -12t7.5 -33q0 -40 -19 -62q-41 -51 -87 -86t-89 -35
q-33 0 -60.5 22.5t-41.5 61.5q-52 -84 -131 -84q-62 0 -99 45zM249 122q20 26 29 69l37 184q-42 -1 -77.5 -31.5t-56.5 -80.5t-21 -106q0 -31 12.5 -46t34.5 -15t42 26zM285.5 542.5q-10.5 10.5 -10.5 25.5q0 7 5 19l93 208q9 20 23.5 29.5t32.5 9.5q25 0 44.5 -18t19.5 -45
q0 -28 -22 -56l-129 -166q-13 -17 -32 -17q-14 0 -24.5 10.5z" />
    <glyph glyph-name="acircumflex" unicode="&#xe2;" horiz-adv-x="470" 
d="M72 40q-37 45 -37 118q0 80 37 151.5t98.5 115t130.5 43.5q22 0 29.5 -8.5t12.5 -30.5q21 4 44 4q49 0 49 -35q0 -21 -15 -100q-23 -115 -23 -160q0 -15 7.5 -24t19.5 -9q19 0 46 24.5t73 79.5q12 14 27 14q13 0 20.5 -12t7.5 -33q0 -40 -19 -62q-41 -51 -87 -86t-89 -35
q-33 0 -60.5 22.5t-41.5 61.5q-52 -84 -131 -84q-62 0 -99 45zM249 122q20 26 29 69l37 184q-42 -1 -77.5 -31.5t-56.5 -80.5t-21 -106q0 -31 12.5 -46t34.5 -15t42 26zM383 542.5q-14 11.5 -18 42.5l-23 177l-87 -177q-15 -31 -32 -42t-38 -11t-33.5 9.5t-12.5 27.5
q0 17 11 36l112 193q18 31 40.5 46.5t53.5 15.5q30 0 47 -18t26 -57l44 -180q3 -12 3 -22q0 -25 -16.5 -38.5t-39.5 -13.5t-37 11.5z" />
    <glyph glyph-name="atilde" unicode="&#xe3;" horiz-adv-x="470" 
d="M72 40q-37 45 -37 118q0 80 37 151.5t98.5 115t130.5 43.5q22 0 29.5 -8.5t12.5 -30.5q21 4 44 4q49 0 49 -35q0 -21 -15 -100q-23 -115 -23 -160q0 -15 7.5 -24t19.5 -9q19 0 46 24.5t73 79.5q12 14 27 14q13 0 20.5 -12t7.5 -33q0 -40 -19 -62q-41 -51 -87 -86t-89 -35
q-33 0 -60.5 22.5t-41.5 61.5q-52 -84 -131 -84q-62 0 -99 45zM249 122q20 26 29 69l37 184q-42 -1 -77.5 -31.5t-56.5 -80.5t-21 -106q0 -31 12.5 -46t34.5 -15t42 26zM380 537.5q-14 5.5 -36 20.5l-107 74l-44 -63q-16 -22 -45 -22q-18 0 -30.5 10.5t-12.5 28.5
q0 23 37 77q23 33 45 48.5t48 15.5q17 0 30.5 -5t35.5 -21l107 -74l44 63q16 22 45 22q18 0 30.5 -10.5t12.5 -28.5q0 -14 -9.5 -31.5t-27.5 -45.5q-23 -33 -45 -48.5t-48 -15.5q-16 0 -30 5.5z" />
    <glyph glyph-name="adieresis" unicode="&#xe4;" horiz-adv-x="470" 
d="M72 40q-37 45 -37 118q0 80 37 151.5t98.5 115t130.5 43.5q22 0 29.5 -8.5t12.5 -30.5q21 4 44 4q49 0 49 -35q0 -21 -15 -100q-23 -115 -23 -160q0 -15 7.5 -24t19.5 -9q19 0 46 24.5t73 79.5q12 14 27 14q13 0 20.5 -12t7.5 -33q0 -40 -19 -62q-41 -51 -87 -86t-89 -35
q-33 0 -60.5 22.5t-41.5 61.5q-52 -84 -131 -84q-62 0 -99 45zM249 122q20 26 29 69l37 184q-42 -1 -77.5 -31.5t-56.5 -80.5t-21 -106q0 -31 12.5 -46t34.5 -15t42 26zM160 549.5q-18 17.5 -18 54.5q0 40 21.5 62.5t57.5 22.5q32 0 50 -17.5t18 -54.5q0 -40 -21.5 -62.5
t-57.5 -22.5q-32 0 -50 17.5zM368 549.5q-18 17.5 -18 54.5q0 40 21.5 62.5t57.5 22.5q32 0 50 -17.5t18 -54.5q0 -40 -21.5 -62.5t-57.5 -22.5q-32 0 -50 17.5z" />
    <glyph glyph-name="aring" unicode="&#xe5;" horiz-adv-x="470" 
d="M72 40q-37 45 -37 118q0 80 37 151.5t98.5 115t130.5 43.5q22 0 29.5 -8.5t12.5 -30.5q21 4 44 4q49 0 49 -35q0 -21 -15 -100q-23 -115 -23 -160q0 -15 7.5 -24t19.5 -9q19 0 46 24.5t73 79.5q12 14 27 14q13 0 20.5 -12t7.5 -33q0 -40 -19 -62q-41 -51 -87 -86t-89 -35
q-33 0 -60.5 22.5t-41.5 61.5q-52 -84 -131 -84q-62 0 -99 45zM249 122q20 26 29 69l37 184q-42 -1 -77.5 -31.5t-56.5 -80.5t-21 -106q0 -31 12.5 -46t34.5 -15t42 26zM229 567.5q-38 35.5 -38 96.5q0 45 19.5 78.5t52 51.5t69.5 18q53 0 91 -35.5t38 -96.5
q0 -45 -19.5 -78.5t-52 -51.5t-69.5 -18q-53 0 -91 35.5zM358 635q14 15 14 40q0 22 -13 35.5t-31 13.5q-20 0 -34 -15t-14 -40q0 -22 13 -35.5t31 -13.5q20 0 34 15z" />
    <glyph glyph-name="ae" unicode="&#xe6;" horiz-adv-x="653" 
d="M774.5 211q7.5 -12 7.5 -33q0 -40 -19 -62q-37 -45 -104.5 -83t-144.5 -38q-67 0 -114.5 23.5t-74.5 66.5q-20 -42 -58.5 -66t-84.5 -24q-68 0 -107 47.5t-39 127.5q0 82 37 150t105 108t158 40q22 0 31 -10t15 -40q25 23 61 35.5t76 12.5q58 0 93 -34.5t35 -93.5
q0 -69 -49.5 -118.5t-167.5 -78.5q25 -46 95 -46q45 0 102.5 31.5t99.5 82.5q12 14 27 14q13 0 20.5 -12zM338 370q-82 -1 -130 -52.5t-48 -142.5q0 -37 13 -58t36 -21q25 0 45 27t30 78l10 50q14 70 44 119zM439.5 325q-25.5 -43 -25.5 -104v-2q59 14 93 42t34 65
q0 19 -10.5 30.5t-28.5 11.5q-37 0 -62.5 -43z" />
    <glyph glyph-name="ccedilla" unicode="&#xe7;" horiz-adv-x="368" 
d="M489.5 211q7.5 -12 7.5 -33q0 -38 -19 -62q-34 -42 -78.5 -70.5t-92.5 -41.5q39 -33 39 -90q0 -47 -22.5 -84.5t-65 -58.5t-99.5 -21q-38 0 -62 5q-39 7 -39 44q0 45 40 45q8 0 13 -1q27 -4 53 -4q40 0 62.5 16.5t22.5 50.5q0 25 -21.5 39.5t-58.5 14.5q-26 0 -40 7
t-14 24q0 6 1 9q3 15 9 22q-45 24 -69 70t-24 105q0 81 32 142t83 94t107 33q55 0 85.5 -32.5t30.5 -83.5q0 -42 -18.5 -71t-48.5 -29q-19 0 -30.5 9t-11.5 25q0 7 2 16t3 13q5 15 5 28t-6.5 20t-18.5 7q-23 0 -43 -20.5t-32 -55.5t-12 -77q0 -116 101 -116q41 0 88.5 27.5
t93.5 82.5q12 14 27 14q13 0 20.5 -12z" />
    <glyph glyph-name="egrave" unicode="&#xe8;" horiz-adv-x="393" 
d="M514.5 211q7.5 -12 7.5 -33q0 -40 -19 -62q-37 -45 -104.5 -83t-144.5 -38q-105 0 -163 57t-58 156q0 69 29 128.5t80.5 94.5t116.5 35q58 0 93 -34.5t35 -93.5q0 -69 -49.5 -118.5t-167.5 -78.5q25 -46 95 -46q45 0 102.5 31.5t99.5 82.5q12 14 27 14q13 0 20.5 -12z
M179.5 325q-25.5 -43 -25.5 -104v-2q59 14 93 42t34 65q0 19 -10.5 30.5t-28.5 11.5q-37 0 -62.5 -43zM237 549l-129 166q-22 28 -22 56t19.5 46t44.5 18q17 0 32 -10t24 -30l93 -208q4 -9 4 -19q0 -15 -10.5 -25.5t-24.5 -10.5q-18 0 -31 17z" />
    <glyph glyph-name="eacute" unicode="&#xe9;" horiz-adv-x="393" 
d="M514.5 211q7.5 -12 7.5 -33q0 -40 -19 -62q-37 -45 -104.5 -83t-144.5 -38q-105 0 -163 57t-58 156q0 69 29 128.5t80.5 94.5t116.5 35q58 0 93 -34.5t35 -93.5q0 -69 -49.5 -118.5t-167.5 -78.5q25 -46 95 -46q45 0 102.5 31.5t99.5 82.5q12 14 27 14q13 0 20.5 -12z
M179.5 325q-25.5 -43 -25.5 -104v-2q59 14 93 42t34 65q0 19 -10.5 30.5t-28.5 11.5q-37 0 -62.5 -43zM243.5 542.5q-10.5 10.5 -10.5 25.5q0 7 5 19l93 208q9 20 23.5 29.5t32.5 9.5q25 0 44.5 -18t19.5 -45q0 -28 -22 -56l-129 -166q-13 -17 -32 -17q-14 0 -24.5 10.5z
" />
    <glyph glyph-name="ecircumflex" unicode="&#xea;" horiz-adv-x="393" 
d="M514.5 211q7.5 -12 7.5 -33q0 -40 -19 -62q-37 -45 -104.5 -83t-144.5 -38q-105 0 -163 57t-58 156q0 69 29 128.5t80.5 94.5t116.5 35q58 0 93 -34.5t35 -93.5q0 -69 -49.5 -118.5t-167.5 -78.5q25 -46 95 -46q45 0 102.5 31.5t99.5 82.5q12 14 27 14q13 0 20.5 -12z
M179.5 325q-25.5 -43 -25.5 -104v-2q59 14 93 42t34 65q0 19 -10.5 30.5t-28.5 11.5q-37 0 -62.5 -43zM341 542.5q-14 11.5 -18 42.5l-23 177l-87 -177q-15 -31 -32 -42t-38 -11t-33.5 9.5t-12.5 27.5q0 17 11 36l112 193q18 31 40.5 46.5t53.5 15.5q30 0 47 -18t26 -57
l44 -180q3 -12 3 -22q0 -25 -16.5 -38.5t-39.5 -13.5t-37 11.5z" />
    <glyph glyph-name="edieresis" unicode="&#xeb;" horiz-adv-x="393" 
d="M514.5 211q7.5 -12 7.5 -33q0 -40 -19 -62q-37 -45 -104.5 -83t-144.5 -38q-105 0 -163 57t-58 156q0 69 29 128.5t80.5 94.5t116.5 35q58 0 93 -34.5t35 -93.5q0 -69 -49.5 -118.5t-167.5 -78.5q25 -46 95 -46q45 0 102.5 31.5t99.5 82.5q12 14 27 14q13 0 20.5 -12z
M179.5 325q-25.5 -43 -25.5 -104v-2q59 14 93 42t34 65q0 19 -10.5 30.5t-28.5 11.5q-37 0 -62.5 -43zM118 549.5q-18 17.5 -18 54.5q0 40 21.5 62.5t57.5 22.5q32 0 50 -17.5t18 -54.5q0 -40 -21.5 -62.5t-57.5 -22.5q-32 0 -50 17.5zM326 549.5q-18 17.5 -18 54.5
q0 40 21.5 62.5t57.5 22.5q32 0 50 -17.5t18 -54.5q0 -40 -21.5 -62.5t-57.5 -22.5q-32 0 -50 17.5z" />
    <glyph glyph-name="igrave" unicode="&#xec;" horiz-adv-x="246" 
d="M76.5 41q-29.5 46 -29.5 122q0 45 11.5 115.5t29.5 131.5q9 32 24 44t48 12q51 0 51 -34q0 -25 -19 -116q-24 -110 -24 -149q0 -30 8 -46t27 -16q18 0 45 25t72 79q12 14 27 14q13 0 20.5 -12t7.5 -33q0 -40 -19 -62q-99 -121 -185 -121q-65 0 -94.5 46zM138 549
l-129 166q-22 28 -22 56t19.5 46t44.5 18q17 0 32 -10t24 -30l93 -208q4 -9 4 -19q0 -15 -10.5 -25.5t-24.5 -10.5q-18 0 -31 17z" />
    <glyph glyph-name="iacute" unicode="&#xed;" horiz-adv-x="246" 
d="M76.5 41q-29.5 46 -29.5 122q0 45 11.5 115.5t29.5 131.5q9 32 24 44t48 12q51 0 51 -34q0 -25 -19 -116q-24 -110 -24 -149q0 -30 8 -46t27 -16q18 0 45 25t72 79q12 14 27 14q13 0 20.5 -12t7.5 -33q0 -40 -19 -62q-99 -121 -185 -121q-65 0 -94.5 46zM144.5 542.5
q-10.5 10.5 -10.5 25.5q0 7 5 19l93 208q9 20 23.5 29.5t32.5 9.5q25 0 44.5 -18t19.5 -45q0 -28 -22 -56l-129 -166q-13 -17 -32 -17q-14 0 -24.5 10.5z" />
    <glyph glyph-name="icircumflex" unicode="&#xee;" horiz-adv-x="246" 
d="M76.5 41q-29.5 46 -29.5 122q0 45 11.5 115.5t29.5 131.5q9 32 24 44t48 12q51 0 51 -34q0 -25 -19 -116q-24 -110 -24 -149q0 -30 8 -46t27 -16q18 0 45 25t72 79q12 14 27 14q13 0 20.5 -12t7.5 -33q0 -40 -19 -62q-99 -121 -185 -121q-65 0 -94.5 46zM242 542.5
q-14 11.5 -18 42.5l-23 177l-87 -177q-15 -31 -32 -42t-38 -11t-33.5 9.5t-12.5 27.5q0 17 11 36l112 193q18 31 40.5 46.5t53.5 15.5q30 0 47 -18t26 -57l44 -180q3 -12 3 -22q0 -25 -16.5 -38.5t-39.5 -13.5t-37 11.5z" />
    <glyph glyph-name="idieresis" unicode="&#xef;" horiz-adv-x="246" 
d="M76.5 41q-29.5 46 -29.5 122q0 45 11.5 115.5t29.5 131.5q9 32 24 44t48 12q51 0 51 -34q0 -25 -19 -116q-24 -110 -24 -149q0 -30 8 -46t27 -16q18 0 45 25t72 79q12 14 27 14q13 0 20.5 -12t7.5 -33q0 -40 -19 -62q-99 -121 -185 -121q-65 0 -94.5 46zM19 549.5
q-18 17.5 -18 54.5q0 40 21.5 62.5t57.5 22.5q32 0 50 -17.5t18 -54.5q0 -40 -21.5 -62.5t-57.5 -22.5q-32 0 -50 17.5zM227 549.5q-18 17.5 -18 54.5q0 40 21.5 62.5t57.5 22.5q32 0 50 -17.5t18 -54.5q0 -40 -21.5 -62.5t-57.5 -22.5q-32 0 -50 17.5z" />
    <glyph glyph-name="eth" unicode="&#xf0;" horiz-adv-x="451" 
d="M518 826q0 -24 -29 -52t-96 -68q29 -65 45 -142.5t16 -160.5q0 -120 -26.5 -212t-79.5 -144t-129 -52q-60 0 -102 29.5t-63 77.5t-21 103q0 76 29 135.5t78.5 93t108.5 33.5q47 0 79 -20q-6 117 -37 202l-90 -47q-9 -5 -20 -5q-21 0 -36.5 19.5t-15.5 39.5q0 16 12 23
q41 23 108 58q-38 67 -100 132q-6 8 -6 15q0 16 20 28.5t45 12.5q16 0 29 -7q20 -10 49.5 -44.5t59.5 -81.5q26 16 50 35q40 29 61 41q11 7 22 7q19 0 31 -21q8 -14 8 -28zM292 158q29 57 35 170q-16 16 -34 24.5t-34 8.5q-48 0 -74.5 -37.5t-26.5 -109.5q0 -54 21 -83.5
t48 -29.5q36 0 65 57z" />
    <glyph glyph-name="ntilde" unicode="&#xf1;" horiz-adv-x="496" 
d="M65.5 35q-15.5 40 -15.5 128q0 130 37 247q9 29 29.5 42.5t57.5 13.5q20 0 28 -5t8 -19q0 -16 -15 -72q-10 -40 -16 -70t-10 -74q33 86 74 140t80.5 77t72.5 23q65 0 65 -65q0 -39 -22 -141q-19 -87 -19 -115q0 -40 29 -40q20 0 47.5 24.5t73.5 79.5q12 14 27 14
q13 0 20.5 -12t7.5 -33q0 -40 -19 -62q-43 -53 -92.5 -87t-112.5 -34q-51 0 -77 29.5t-26 85.5q0 28 14 100q13 63 13 87q0 16 -11 16q-13 0 -36.5 -33.5t-48 -88.5t-39.5 -116q-11 -47 -25.5 -63.5t-45.5 -16.5q-38 0 -53.5 40zM386 537.5q-14 5.5 -36 20.5l-107 74
l-44 -63q-16 -22 -45 -22q-18 0 -30.5 10.5t-12.5 28.5q0 23 37 77q23 33 45 48.5t48 15.5q17 0 30.5 -5t35.5 -21l107 -74l44 63q16 22 45 22q18 0 30.5 -10.5t12.5 -28.5q0 -14 -9.5 -31.5t-27.5 -45.5q-23 -33 -45 -48.5t-48 -15.5q-16 0 -30 5.5z" />
    <glyph glyph-name="ograve" unicode="&#xf2;" horiz-adv-x="451" 
d="M578 294q7 -13 7 -33q0 -48 -29 -57q-60 -21 -132 -24q-19 -84 -75 -134.5t-127 -50.5q-60 0 -102.5 29t-64.5 77t-22 104q0 76 29 135.5t80 93t113 33.5q76 0 122.5 -52.5t54.5 -129.5q47 3 112 20q8 2 14 2q13 0 20 -13zM285.5 127q23.5 26 31.5 75q-31 21 -47.5 55
t-16.5 72q0 16 3 32h-5q-40 0 -66.5 -38.5t-26.5 -108.5q0 -55 21.5 -84t50.5 -29q32 0 55.5 26zM233 549l-129 166q-22 28 -22 56t19.5 46t44.5 18q17 0 32 -10t24 -30l93 -208q4 -9 4 -19q0 -15 -10.5 -25.5t-24.5 -10.5q-18 0 -31 17z" />
    <glyph glyph-name="oacute" unicode="&#xf3;" horiz-adv-x="451" 
d="M578 294q7 -13 7 -33q0 -48 -29 -57q-60 -21 -132 -24q-19 -84 -75 -134.5t-127 -50.5q-60 0 -102.5 29t-64.5 77t-22 104q0 76 29 135.5t80 93t113 33.5q76 0 122.5 -52.5t54.5 -129.5q47 3 112 20q8 2 14 2q13 0 20 -13zM285.5 127q23.5 26 31.5 75q-31 21 -47.5 55
t-16.5 72q0 16 3 32h-5q-40 0 -66.5 -38.5t-26.5 -108.5q0 -55 21.5 -84t50.5 -29q32 0 55.5 26zM239.5 542.5q-10.5 10.5 -10.5 25.5q0 7 5 19l93 208q9 20 23.5 29.5t32.5 9.5q25 0 44.5 -18t19.5 -45q0 -28 -22 -56l-129 -166q-13 -17 -32 -17q-14 0 -24.5 10.5z" />
    <glyph glyph-name="ocircumflex" unicode="&#xf4;" horiz-adv-x="451" 
d="M578 294q7 -13 7 -33q0 -48 -29 -57q-60 -21 -132 -24q-19 -84 -75 -134.5t-127 -50.5q-60 0 -102.5 29t-64.5 77t-22 104q0 76 29 135.5t80 93t113 33.5q76 0 122.5 -52.5t54.5 -129.5q47 3 112 20q8 2 14 2q13 0 20 -13zM285.5 127q23.5 26 31.5 75q-31 21 -47.5 55
t-16.5 72q0 16 3 32h-5q-40 0 -66.5 -38.5t-26.5 -108.5q0 -55 21.5 -84t50.5 -29q32 0 55.5 26zM337 542.5q-14 11.5 -18 42.5l-23 177l-87 -177q-15 -31 -32 -42t-38 -11t-33.5 9.5t-12.5 27.5q0 17 11 36l112 193q18 31 40.5 46.5t53.5 15.5q30 0 47 -18t26 -57l44 -180
q3 -12 3 -22q0 -25 -16.5 -38.5t-39.5 -13.5t-37 11.5z" />
    <glyph glyph-name="otilde" unicode="&#xf5;" horiz-adv-x="451" 
d="M578 294q7 -13 7 -33q0 -48 -29 -57q-60 -21 -132 -24q-19 -84 -75 -134.5t-127 -50.5q-60 0 -102.5 29t-64.5 77t-22 104q0 76 29 135.5t80 93t113 33.5q76 0 122.5 -52.5t54.5 -129.5q47 3 112 20q8 2 14 2q13 0 20 -13zM285.5 127q23.5 26 31.5 75q-31 21 -47.5 55
t-16.5 72q0 16 3 32h-5q-40 0 -66.5 -38.5t-26.5 -108.5q0 -55 21.5 -84t50.5 -29q32 0 55.5 26zM334 537.5q-14 5.5 -36 20.5l-107 74l-44 -63q-16 -22 -45 -22q-18 0 -30.5 10.5t-12.5 28.5q0 23 37 77q23 33 45 48.5t48 15.5q17 0 30.5 -5t35.5 -21l107 -74l44 63
q16 22 45 22q18 0 30.5 -10.5t12.5 -28.5q0 -14 -9.5 -31.5t-27.5 -45.5q-23 -33 -45 -48.5t-48 -15.5q-16 0 -30 5.5z" />
    <glyph glyph-name="odieresis" unicode="&#xf6;" horiz-adv-x="451" 
d="M578 294q7 -13 7 -33q0 -48 -29 -57q-60 -21 -132 -24q-19 -84 -75 -134.5t-127 -50.5q-60 0 -102.5 29t-64.5 77t-22 104q0 76 29 135.5t80 93t113 33.5q76 0 122.5 -52.5t54.5 -129.5q47 3 112 20q8 2 14 2q13 0 20 -13zM285.5 127q23.5 26 31.5 75q-31 21 -47.5 55
t-16.5 72q0 16 3 32h-5q-40 0 -66.5 -38.5t-26.5 -108.5q0 -55 21.5 -84t50.5 -29q32 0 55.5 26zM114 549.5q-18 17.5 -18 54.5q0 40 21.5 62.5t57.5 22.5q32 0 50 -17.5t18 -54.5q0 -40 -21.5 -62.5t-57.5 -22.5q-32 0 -50 17.5zM322 549.5q-18 17.5 -18 54.5
q0 40 21.5 62.5t57.5 22.5q32 0 50 -17.5t18 -54.5q0 -40 -21.5 -62.5t-57.5 -22.5q-32 0 -50 17.5z" />
    <glyph glyph-name="divide" unicode="&#xf7;" horiz-adv-x="700" 
d="M316.5 420q-18.5 20 -18.5 53q0 37 21 59.5t59 22.5q75 0 75 -71q0 -39 -21.5 -61.5t-59.5 -22.5q-37 0 -55.5 20zM95 230.5q-12 14.5 -12 34.5q0 25 16.5 45t44.5 20h440q23 0 35 -14t12 -34q0 -25 -16.5 -45.5t-44.5 -20.5h-440q-23 0 -35 14.5zM266.5 15
q-18.5 20 -18.5 53q0 37 21 59.5t59 22.5q75 0 75 -71q0 -39 -21.5 -61.5t-59.5 -22.5q-37 0 -55.5 20z" />
    <glyph glyph-name="oslash" unicode="&#xf8;" horiz-adv-x="459" 
d="M586 294q7 -13 7 -33q0 -48 -29 -57q-60 -21 -129 -24q-19 -80 -74 -130t-127 -55l-17 -100q-2 -12 -14 -18.5t-27 -6.5t-24.5 6.5t-7.5 18.5l20 108q-64 19 -97.5 75.5t-33.5 126.5q0 74 28 133t76 93t108 36l17 99q2 12 14 18.5t27 6.5t24.5 -6.5t7.5 -18.5l-20 -108
q56 -17 89 -64.5t39 -108.5q46 4 109 20q6 2 14 2q13 0 20 -13zM184 116l25 136l18 109q-31 -9 -51.5 -45.5t-20.5 -101.5q0 -69 29 -98zM307.5 147.5q19.5 37.5 19.5 100.5q0 70 -32 99l-17 -92l-26 -154q36 9 55.5 46.5z" />
    <glyph glyph-name="ugrave" unicode="&#xf9;" horiz-adv-x="462" 
d="M76.5 36.5q-28.5 41.5 -28.5 103.5q0 75 10 137.5t33 132.5q10 30 28 43t57 13q22 0 30.5 -7t8.5 -21q0 -8 -11 -54q-10 -37 -16 -67q-20 -105 -20 -140q0 -21 5 -29.5t16 -8.5q15 0 37.5 30t48 91t49.5 150q8 30 24.5 43t49.5 13q23 0 32 -5.5t9 -20.5q0 -25 -25 -137
q-28 -128 -28 -158q0 -19 8 -29.5t21 -10.5q20 0 47.5 24.5t73.5 79.5q12 14 27 14q13 0 20.5 -12t7.5 -33q0 -40 -19 -62q-43 -53 -92.5 -87t-112.5 -34q-48 0 -70.5 37t-22.5 104q-17 -68 -51 -104.5t-73 -36.5q-45 0 -73.5 41.5zM265 549l-129 166q-22 28 -22 56t19.5 46
t44.5 18q17 0 32 -10t24 -30l93 -208q4 -9 4 -19q0 -15 -10.5 -25.5t-24.5 -10.5q-18 0 -31 17z" />
    <glyph glyph-name="uacute" unicode="&#xfa;" horiz-adv-x="462" 
d="M76.5 36.5q-28.5 41.5 -28.5 103.5q0 75 10 137.5t33 132.5q10 30 28 43t57 13q22 0 30.5 -7t8.5 -21q0 -8 -11 -54q-10 -37 -16 -67q-20 -105 -20 -140q0 -21 5 -29.5t16 -8.5q15 0 37.5 30t48 91t49.5 150q8 30 24.5 43t49.5 13q23 0 32 -5.5t9 -20.5q0 -25 -25 -137
q-28 -128 -28 -158q0 -19 8 -29.5t21 -10.5q20 0 47.5 24.5t73.5 79.5q12 14 27 14q13 0 20.5 -12t7.5 -33q0 -40 -19 -62q-43 -53 -92.5 -87t-112.5 -34q-48 0 -70.5 37t-22.5 104q-17 -68 -51 -104.5t-73 -36.5q-45 0 -73.5 41.5zM271.5 542.5q-10.5 10.5 -10.5 25.5
q0 7 5 19l93 208q9 20 23.5 29.5t32.5 9.5q25 0 44.5 -18t19.5 -45q0 -28 -22 -56l-129 -166q-13 -17 -32 -17q-14 0 -24.5 10.5z" />
    <glyph glyph-name="ucircumflex" unicode="&#xfb;" horiz-adv-x="462" 
d="M76.5 36.5q-28.5 41.5 -28.5 103.5q0 75 10 137.5t33 132.5q10 30 28 43t57 13q22 0 30.5 -7t8.5 -21q0 -8 -11 -54q-10 -37 -16 -67q-20 -105 -20 -140q0 -21 5 -29.5t16 -8.5q15 0 37.5 30t48 91t49.5 150q8 30 24.5 43t49.5 13q23 0 32 -5.5t9 -20.5q0 -25 -25 -137
q-28 -128 -28 -158q0 -19 8 -29.5t21 -10.5q20 0 47.5 24.5t73.5 79.5q12 14 27 14q13 0 20.5 -12t7.5 -33q0 -40 -19 -62q-43 -53 -92.5 -87t-112.5 -34q-48 0 -70.5 37t-22.5 104q-17 -68 -51 -104.5t-73 -36.5q-45 0 -73.5 41.5zM369 542.5q-14 11.5 -18 42.5l-23 177
l-87 -177q-15 -31 -32 -42t-38 -11t-33.5 9.5t-12.5 27.5q0 17 11 36l112 193q18 31 40.5 46.5t53.5 15.5q30 0 47 -18t26 -57l44 -180q3 -12 3 -22q0 -25 -16.5 -38.5t-39.5 -13.5t-37 11.5z" />
    <glyph glyph-name="udieresis" unicode="&#xfc;" horiz-adv-x="462" 
d="M76.5 36.5q-28.5 41.5 -28.5 103.5q0 75 10 137.5t33 132.5q10 30 28 43t57 13q22 0 30.5 -7t8.5 -21q0 -8 -11 -54q-10 -37 -16 -67q-20 -105 -20 -140q0 -21 5 -29.5t16 -8.5q15 0 37.5 30t48 91t49.5 150q8 30 24.5 43t49.5 13q23 0 32 -5.5t9 -20.5q0 -25 -25 -137
q-28 -128 -28 -158q0 -19 8 -29.5t21 -10.5q20 0 47.5 24.5t73.5 79.5q12 14 27 14q13 0 20.5 -12t7.5 -33q0 -40 -19 -62q-43 -53 -92.5 -87t-112.5 -34q-48 0 -70.5 37t-22.5 104q-17 -68 -51 -104.5t-73 -36.5q-45 0 -73.5 41.5zM146 549.5q-18 17.5 -18 54.5
q0 40 21.5 62.5t57.5 22.5q32 0 50 -17.5t18 -54.5q0 -40 -21.5 -62.5t-57.5 -22.5q-32 0 -50 17.5zM354 549.5q-18 17.5 -18 54.5q0 40 21.5 62.5t57.5 22.5q32 0 50 -17.5t18 -54.5q0 -40 -21.5 -62.5t-57.5 -22.5q-32 0 -50 17.5z" />
    <glyph glyph-name="yacute" unicode="&#xfd;" horiz-adv-x="479" 
d="M580.5 208.5q7.5 -12.5 7.5 -31.5q0 -23 -7 -36t-22 -23l-192 -129q-38 -207 -99.5 -325.5t-156.5 -118.5q-51 0 -83 31.5t-32 82.5q0 47 21.5 96t80 112.5t165.5 145.5l3 23q7 37 16 106q-20 -72 -56 -109.5t-76 -37.5q-45 0 -73.5 41.5t-28.5 103.5q0 75 10 137.5
t33 132.5q10 30 28 43t57 13q22 0 30.5 -7t8.5 -21q0 -8 -11 -54q-10 -37 -16 -67q-8 -41 -14 -78.5t-6 -61.5q0 -38 21 -38q15 0 37.5 30t48 91t49.5 150q8 30 24.5 43t49.5 13q23 0 32 -6t9 -20q0 -25 -26 -172l-26 -161q77 58 150 106q13 8 23 8q13 0 20.5 -12.5z
M178 -300q31 58 62 193q-77 -65 -111.5 -118.5t-34.5 -93.5q0 -17 6.5 -28t21.5 -11q25 0 56 58zM271.5 542.5q-10.5 10.5 -10.5 25.5q0 7 5 19l93 208q9 20 23.5 29.5t32.5 9.5q25 0 44.5 -18t19.5 -45q0 -28 -22 -56l-129 -166q-13 -17 -32 -17q-14 0 -24.5 10.5z" />
    <glyph glyph-name="thorn" unicode="&#xfe;" horiz-adv-x="508" 
d="M629.5 211q7.5 -12 7.5 -33q0 -40 -19 -62q-43 -53 -92.5 -87t-112.5 -34q-58 0 -92 45q-71 -41 -171 -51q-2 -94 -2 -138l1 -128q0 -32 -19.5 -45t-47.5 -13t-43 11t-15 38q0 104 5.5 247.5t18.5 266.5q23 219 79 484q8 40 26.5 56t45.5 16q33 0 48 -10t15 -32
q0 -6 -4 -26q-49 -200 -85 -433q38 88 88 135.5t104 47.5q45 0 75.5 -37.5t30.5 -107.5q0 -125 -67 -209q21 -7 38 -7q33 0 63 24t77 80q12 14 27 14q13 0 20.5 -12zM298.5 152q46.5 51 46.5 124q0 60 -30 60q-23 0 -51.5 -34.5t-55 -91t-43.5 -120.5q87 11 133.5 62z" />
    <glyph glyph-name="ydieresis" unicode="&#xff;" horiz-adv-x="479" 
d="M580.5 208.5q7.5 -12.5 7.5 -31.5q0 -23 -7 -36t-22 -23l-192 -129q-38 -207 -99.5 -325.5t-156.5 -118.5q-51 0 -83 31.5t-32 82.5q0 47 21.5 96t80 112.5t165.5 145.5l3 23q7 37 16 106q-20 -72 -56 -109.5t-76 -37.5q-45 0 -73.5 41.5t-28.5 103.5q0 75 10 137.5
t33 132.5q10 30 28 43t57 13q22 0 30.5 -7t8.5 -21q0 -8 -11 -54q-10 -37 -16 -67q-8 -41 -14 -78.5t-6 -61.5q0 -38 21 -38q15 0 37.5 30t48 91t49.5 150q8 30 24.5 43t49.5 13q23 0 32 -6t9 -20q0 -25 -26 -172l-26 -161q77 58 150 106q13 8 23 8q13 0 20.5 -12.5z
M178 -300q31 58 62 193q-77 -65 -111.5 -118.5t-34.5 -93.5q0 -17 6.5 -28t21.5 -11q25 0 56 58zM146 549.5q-18 17.5 -18 54.5q0 40 21.5 62.5t57.5 22.5q32 0 50 -17.5t18 -54.5q0 -40 -21.5 -62.5t-57.5 -22.5q-32 0 -50 17.5zM354 549.5q-18 17.5 -18 54.5
q0 40 21.5 62.5t57.5 22.5q32 0 50 -17.5t18 -54.5q0 -40 -21.5 -62.5t-57.5 -22.5q-32 0 -50 17.5z" />
    <glyph glyph-name="Amacron" unicode="&#x100;" horiz-adv-x="786" 
d="M175.5 29q-55.5 34 -87.5 98.5t-32 152.5q0 152 65 281.5t192 208t305 78.5q46 0 98.5 -7t95.5 -21q28 -8 28 -40q0 -26 -19.5 -49t-45.5 -23q-8 0 -12 1q-52 12 -89 17.5t-78 5.5q-127 0 -216 -61.5t-133 -162.5t-44 -218q0 -85 33.5 -131.5t87.5 -46.5q61 0 107 50
t84 162t75 304q6 28 24 38t48 10q71 0 71 -46q0 -8 -3 -20q-26 -97 -47.5 -214.5t-21.5 -178.5q0 -54 16 -78.5t49 -24.5q32 0 61 21.5t73 73.5q12 14 27 14q13 0 20.5 -12t7.5 -33q0 -39 -19 -62q-49 -59 -96 -90t-115 -31q-70 0 -113 40.5t-54 114.5q-74 -155 -218 -155
q-69 0 -124.5 34zM441 956q0 25 14 39.5t39 14.5h223q22 0 33.5 -10.5t11.5 -30.5q0 -27 -14 -42t-39 -15h-223q-45 0 -45 44z" />
    <glyph glyph-name="amacron" unicode="&#x101;" horiz-adv-x="470" 
d="M72 40q-37 45 -37 118q0 80 37 151.5t98.5 115t130.5 43.5q22 0 29.5 -8.5t12.5 -30.5q21 4 44 4q49 0 49 -35q0 -21 -15 -100q-23 -115 -23 -160q0 -15 7.5 -24t19.5 -9q19 0 46 24.5t73 79.5q12 14 27 14q13 0 20.5 -12t7.5 -33q0 -40 -19 -62q-41 -51 -87 -86t-89 -35
q-33 0 -60.5 22.5t-41.5 61.5q-52 -84 -131 -84q-62 0 -99 45zM249 122q20 26 29 69l37 184q-42 -1 -77.5 -31.5t-56.5 -80.5t-21 -106q0 -31 12.5 -46t34.5 -15t42 26zM161.5 543q-11.5 11 -11.5 31q0 24 14 38t39 14h223q22 0 33.5 -10.5t11.5 -28.5q0 -26 -14 -40.5
t-39 -14.5h-223q-22 0 -33.5 11z" />
    <glyph glyph-name="Abreve" unicode="&#x102;" horiz-adv-x="786" 
d="M175.5 29q-55.5 34 -87.5 98.5t-32 152.5q0 152 65 281.5t192 208t305 78.5q46 0 98.5 -7t95.5 -21q28 -8 28 -40q0 -26 -19.5 -49t-45.5 -23q-8 0 -12 1q-52 12 -89 17.5t-78 5.5q-127 0 -216 -61.5t-133 -162.5t-44 -218q0 -85 33.5 -131.5t87.5 -46.5q61 0 107 50
t84 162t75 304q6 28 24 38t48 10q71 0 71 -46q0 -8 -3 -20q-26 -97 -47.5 -214.5t-21.5 -178.5q0 -54 16 -78.5t49 -24.5q32 0 61 21.5t73 73.5q12 14 27 14q13 0 20.5 -12t7.5 -33q0 -39 -19 -62q-49 -59 -96 -90t-115 -31q-70 0 -113 40.5t-54 114.5q-74 -155 -218 -155
q-69 0 -124.5 34zM498.5 932.5q-45.5 20.5 -69 53t-23.5 66.5q0 21 17 33t42 12q20 0 31.5 -7.5t19.5 -25.5q15 -32 37 -44t61 -12t63 14.5t44 44.5t57 30q19 0 31 -10t12 -28q0 -32 -26 -66.5t-75 -57.5t-114 -23q-62 0 -107.5 20.5z" />
    <glyph glyph-name="abreve" unicode="&#x103;" horiz-adv-x="470" 
d="M72 40q-37 45 -37 118q0 80 37 151.5t98.5 115t130.5 43.5q22 0 29.5 -8.5t12.5 -30.5q21 4 44 4q49 0 49 -35q0 -21 -15 -100q-23 -115 -23 -160q0 -15 7.5 -24t19.5 -9q19 0 46 24.5t73 79.5q12 14 27 14q13 0 20.5 -12t7.5 -33q0 -40 -19 -62q-41 -51 -87 -86t-89 -35
q-33 0 -60.5 22.5t-41.5 61.5q-52 -84 -131 -84q-62 0 -99 45zM249 122q20 26 29 69l37 184q-42 -1 -77.5 -31.5t-56.5 -80.5t-21 -106q0 -31 12.5 -46t34.5 -15t42 26zM208 557q-45 25 -68 64t-23 80q0 25 16 40t41 15q40 0 51 -40q12 -42 37 -65t61 -23q40 0 63.5 24.5
t43.5 66.5q18 37 53 37q22 0 33.5 -12.5t11.5 -34.5q0 -39 -25.5 -80t-74 -69t-113.5 -28q-62 0 -107 25z" />
    <glyph glyph-name="Aogonek" unicode="&#x104;" horiz-adv-x="786" 
d="M604.5 -216.5q-42.5 37.5 -42.5 98.5q0 73 60 123q-43 16 -69.5 53t-34.5 92q-74 -155 -218 -155q-69 0 -124.5 34t-87.5 98.5t-32 152.5q0 152 65 281.5t192 208t305 78.5q46 0 98.5 -7t95.5 -21q28 -8 28 -40q0 -26 -19.5 -49t-45.5 -23q-8 0 -12 1q-52 12 -89 17.5
t-78 5.5q-127 0 -216 -61.5t-133 -162.5t-44 -218q0 -85 33.5 -131.5t87.5 -46.5q61 0 107 50t84 162t75 304q6 28 24 38t48 10q71 0 71 -46q0 -8 -3 -20q-26 -97 -47.5 -214.5t-21.5 -178.5q0 -54 16 -78.5t49 -24.5q32 0 61 21.5t73 73.5q12 14 27 14q13 0 20.5 -12
t7.5 -33q0 -19 -3.5 -34t-15.5 -28q-59 -69 -141 -116q-46 -26 -66.5 -50t-20.5 -51q0 -29 18 -44t44 -15t47 7q17 6 27 6q14 0 20 -9.5t6 -28.5q0 -21 -11 -35.5t-36 -23.5q-12 -4 -31.5 -7t-35.5 -3q-69 0 -111.5 37.5z" />
    <glyph glyph-name="aogonek" unicode="&#x105;" horiz-adv-x="470" 
d="M290.5 -214.5q-40.5 35.5 -40.5 96.5q0 43 22.5 81.5t60.5 63.5q-21 24 -31 52q-52 -84 -131 -84q-62 0 -99 45t-37 118q0 80 37 151.5t98.5 115t130.5 43.5q22 0 29.5 -8.5t12.5 -30.5q21 4 44 4q49 0 49 -35q0 -21 -15 -100q-23 -115 -23 -160q0 -15 7.5 -24t19.5 -9
q19 0 46 24.5t73 79.5q12 14 27 14q13 0 20.5 -12t7.5 -33q0 -40 -19 -62q-33 -40 -66.5 -66.5t-74.5 -49.5q-46 -26 -66.5 -50t-20.5 -51q0 -29 18 -44t44 -15t47 7q16 6 27 6q26 0 26 -37q0 -40 -47 -56q-12 -4 -31.5 -7t-35.5 -3q-69 0 -109.5 35.5zM249 122q20 26 29 69
l37 184q-42 -1 -77.5 -31.5t-56.5 -80.5t-21 -106q0 -31 12.5 -46t34.5 -15t42 26z" />
    <glyph glyph-name="Cacute" unicode="&#x106;" horiz-adv-x="686" 
d="M246 38.5q-88 43.5 -135 123.5t-47 186q0 147 55.5 261t150.5 176.5t211 62.5q108 0 164 -55.5t56 -146.5q0 -61 -21.5 -98t-61.5 -37q-28 0 -44 13t-16 38q0 9 4 33q6 30 6 48q0 91 -97 91q-66 0 -126 -43t-97 -126.5t-37 -198.5q0 -120 67 -185.5t198 -65.5
q65 0 131.5 16.5t147.5 50.5q15 6 25 6q16 0 24 -12t8 -31q0 -61 -66 -90q-71 -31 -147.5 -45.5t-145.5 -14.5q-119 0 -207 43.5zM461 922.5q-11 10.5 -11 25.5q0 20 19 36l172 147q20 17 44 17q26 0 45 -18.5t19 -44.5q0 -43 -53 -71l-187 -97q-9 -5 -21 -5q-16 0 -27 10.5
z" />
    <glyph glyph-name="cacute" unicode="&#x107;" horiz-adv-x="368" 
d="M86.5 50.5q-54.5 55.5 -54.5 146.5q0 81 32 142t83 94t107 33q55 0 85.5 -32.5t30.5 -83.5q0 -42 -18.5 -71t-48.5 -29q-19 0 -30.5 9t-11.5 25q0 7 2 16t3 13q5 15 5 28t-6.5 20t-18.5 7q-23 0 -43 -20.5t-32 -55.5t-12 -77q0 -116 101 -116q41 0 88.5 27.5t93.5 82.5
q12 14 27 14q13 0 20.5 -12t7.5 -33q0 -38 -19 -62q-47 -58 -112.5 -89.5t-126.5 -31.5q-98 0 -152.5 55.5zM238.5 542.5q-10.5 10.5 -10.5 25.5q0 7 5 19l93 208q9 20 23.5 29.5t32.5 9.5q25 0 44.5 -18t19.5 -45q0 -28 -22 -56l-129 -166q-13 -17 -32 -17
q-14 0 -24.5 10.5z" />
    <glyph glyph-name="Ccircumflex" unicode="&#x108;" horiz-adv-x="686" 
d="M246 38.5q-88 43.5 -135 123.5t-47 186q0 147 55.5 261t150.5 176.5t211 62.5q108 0 164 -55.5t56 -146.5q0 -61 -21.5 -98t-61.5 -37q-28 0 -44 13t-16 38q0 9 4 33q6 30 6 48q0 91 -97 91q-66 0 -126 -43t-97 -126.5t-37 -198.5q0 -120 67 -185.5t198 -65.5
q65 0 131.5 16.5t147.5 50.5q15 6 25 6q16 0 24 -12t8 -31q0 -61 -66 -90q-71 -31 -147.5 -45.5t-145.5 -14.5q-119 0 -207 43.5zM512 1093l-80 -142q-11 -20 -29 -30t-37 -10q-21 0 -36 11.5t-15 30.5q0 17 13 37l92 137q37 56 105 56q31 0 49.5 -16t33.5 -53l47 -121
q6 -15 6 -28q0 -24 -17 -38.5t-40 -14.5q-17 0 -31.5 9.5t-19.5 26.5z" />
    <glyph glyph-name="ccircumflex" unicode="&#x109;" horiz-adv-x="368" 
d="M86.5 50.5q-54.5 55.5 -54.5 146.5q0 81 32 142t83 94t107 33q55 0 85.5 -32.5t30.5 -83.5q0 -42 -18.5 -71t-48.5 -29q-19 0 -30.5 9t-11.5 25q0 7 2 16t3 13q5 15 5 28t-6.5 20t-18.5 7q-23 0 -43 -20.5t-32 -55.5t-12 -77q0 -116 101 -116q41 0 88.5 27.5t93.5 82.5
q12 14 27 14q13 0 20.5 -12t7.5 -33q0 -38 -19 -62q-47 -58 -112.5 -89.5t-126.5 -31.5q-98 0 -152.5 55.5zM336 542.5q-14 11.5 -18 42.5l-23 177l-87 -177q-15 -31 -32 -42t-38 -11t-33.5 9.5t-12.5 27.5q0 17 11 36l112 193q18 31 40.5 46.5t53.5 15.5q30 0 47 -18
t26 -57l44 -180q3 -12 3 -22q0 -25 -16.5 -38.5t-39.5 -13.5t-37 11.5z" />
    <glyph glyph-name="Cdotaccent" unicode="&#x10a;" horiz-adv-x="686" 
d="M246 38.5q-88 43.5 -135 123.5t-47 186q0 147 55.5 261t150.5 176.5t211 62.5q108 0 164 -55.5t56 -146.5q0 -61 -21.5 -98t-61.5 -37q-28 0 -44 13t-16 38q0 9 4 33q6 30 6 48q0 91 -97 91q-66 0 -126 -43t-97 -126.5t-37 -198.5q0 -120 67 -185.5t198 -65.5
q65 0 131.5 16.5t147.5 50.5q15 6 25 6q16 0 24 -12t8 -31q0 -61 -66 -90q-71 -31 -147.5 -45.5t-145.5 -14.5q-119 0 -207 43.5zM427 932.5q-22 20.5 -22 55.5q0 36 28.5 60t69.5 24q38 0 61.5 -18.5t23.5 -52.5q0 -41 -27 -65t-70 -24q-42 0 -64 20.5z" />
    <glyph glyph-name="cdotaccent" unicode="&#x10b;" horiz-adv-x="368" 
d="M86.5 50.5q-54.5 55.5 -54.5 146.5q0 81 32 142t83 94t107 33q55 0 85.5 -32.5t30.5 -83.5q0 -42 -18.5 -71t-48.5 -29q-19 0 -30.5 9t-11.5 25q0 7 2 16t3 13q5 15 5 28t-6.5 20t-18.5 7q-23 0 -43 -20.5t-32 -55.5t-12 -77q0 -116 101 -116q41 0 88.5 27.5t93.5 82.5
q12 14 27 14q13 0 20.5 -12t7.5 -33q0 -38 -19 -62q-47 -58 -112.5 -89.5t-126.5 -31.5q-98 0 -152.5 55.5zM202 551.5q-21 19.5 -21 54.5t27.5 58.5t68.5 23.5q37 0 60 -18t23 -51q0 -40 -26 -63.5t-69 -23.5q-42 0 -63 19.5z" />
    <glyph glyph-name="Ccaron" unicode="&#x10c;" horiz-adv-x="686" 
d="M246 38.5q-88 43.5 -135 123.5t-47 186q0 147 55.5 261t150.5 176.5t211 62.5q108 0 164 -55.5t56 -146.5q0 -61 -21.5 -98t-61.5 -37q-28 0 -44 13t-16 38q0 9 4 33q6 30 6 48q0 91 -97 91q-66 0 -126 -43t-97 -126.5t-37 -198.5q0 -120 67 -185.5t198 -65.5
q65 0 131.5 16.5t147.5 50.5q15 6 25 6q16 0 24 -12t8 -31q0 -61 -66 -90q-71 -31 -147.5 -45.5t-145.5 -14.5q-119 0 -207 43.5zM443 928q-18 16 -37 53l-50 99q-10 20 -10 37q0 21 14 32.5t35 11.5t34 -8t20 -28l48 -126l78 123q14 22 28 30.5t37 8.5q19 0 31.5 -9.5
t12.5 -26.5q0 -19 -17 -42l-84 -115q-21 -29 -43 -42.5t-51 -13.5q-28 0 -46 16z" />
    <glyph glyph-name="ccaron" unicode="&#x10d;" horiz-adv-x="368" 
d="M86.5 50.5q-54.5 55.5 -54.5 146.5q0 81 32 142t83 94t107 33q55 0 85.5 -32.5t30.5 -83.5q0 -42 -18.5 -71t-48.5 -29q-19 0 -30.5 9t-11.5 25q0 7 2 16t3 13q5 15 5 28t-6.5 20t-18.5 7q-23 0 -43 -20.5t-32 -55.5t-12 -77q0 -116 101 -116q41 0 88.5 27.5t93.5 82.5
q12 14 27 14q13 0 20.5 -12t7.5 -33q0 -38 -19 -62q-47 -58 -112.5 -89.5t-126.5 -31.5q-98 0 -152.5 55.5zM210 549q-17 18 -26 57l-44 180q-3 12 -3 22q0 25 16.5 38.5t39.5 13.5t37 -11.5t18 -42.5l23 -177l87 177q15 31 32 42t38 11t33.5 -9.5t12.5 -27.5q0 -17 -11 -36
l-112 -193q-18 -31 -40.5 -46.5t-53.5 -15.5q-30 0 -47 18z" />
    <glyph glyph-name="Dcaron" unicode="&#x10e;" horiz-adv-x="836" 
d="M177 5q-40 5 -55 21t-13 52q7 99 33 244.5t63 280.5q7 25 28 35t55 10q61 0 61 -34q0 -14 -6 -32q-26 -80 -52 -214.5t-37 -256.5q30 -3 68 -3q175 0 261.5 106t86.5 283q0 119 -68 184t-192 65q-80 0 -158.5 -25t-141.5 -66q-13 -9 -28 -9q-17 0 -27 14.5t-10 35.5
q0 24 8 39.5t27 28.5q69 47 162 71.5t179 24.5q122 0 211 -42.5t137 -124.5t48 -198q0 -151 -60 -263.5t-175 -174.5t-274 -62q-58 0 -131 10zM405 928q-18 16 -37 53l-50 99q-10 20 -10 37q0 21 14 32.5t35 11.5t34 -8t20 -28l48 -126l78 123q14 22 28 30.5t37 8.5
q19 0 31.5 -9.5t12.5 -26.5q0 -19 -17 -42l-84 -115q-21 -29 -43 -42.5t-51 -13.5q-28 0 -46 16z" />
    <glyph glyph-name="dcaron" unicode="&#x10f;" horiz-adv-x="470" 
d="M72 40q-37 45 -37 118q0 79 37 151t97.5 115.5t127.5 43.5q23 0 35 -21q27 199 46 319q9 62 78 62q31 0 45 -10t14 -31q0 -5 -2 -17l-19 -91q-53 -262 -80 -416q-16 -88 -16 -125q0 -15 7.5 -24t19.5 -9q19 0 46 24.5t73 79.5q12 14 27 14q13 0 20.5 -12t7.5 -33
q0 -40 -19 -62q-41 -51 -87 -86t-89 -35q-33 0 -60.5 22.5t-41.5 61.5q-52 -84 -131 -84q-62 0 -99 45zM249 122q20 26 29 69l37 184q-42 -1 -77.5 -31.5t-56.5 -80.5t-21 -106q0 -31 12.5 -46t34.5 -15t42 26zM550 709.5q-11 10.5 -10 30.5l6 132q1 33 20.5 48t45.5 15
q24 0 39.5 -14.5t15.5 -41.5q0 -18 -5 -32l-39 -115q-11 -33 -45 -33q-17 0 -28 10.5z" />
    <glyph glyph-name="Dcroat" unicode="&#x110;" horiz-adv-x="821" 
d="M628.5 814.5q85.5 -45.5 130 -128t44.5 -192.5q0 -143 -60.5 -256.5t-175.5 -178t-273 -64.5q-66 0 -139 10q-39 5 -54 21t-12 52q13 138 45 305h-69q-50 0 -50 46q0 41 29.5 58.5t93.5 17.5h23q36 155 82 293q7 20 17.5 32.5t30.5 17.5q49 12 133 12q119 0 204.5 -45.5z
M502.5 159.5q78.5 51.5 116 137.5t37.5 192q0 129 -67 194t-178 65q-33 0 -44 -1q-33 -100 -67 -243q29 -1 91 -1q64 0 86.5 -13t22.5 -42q0 -31 -13 -49t-50 -18q-32 0 -110 2l-52 1q-30 -150 -41 -273q31 -3 73 -3q117 0 195.5 51.5z" />
    <glyph glyph-name="dcroat" unicode="&#x111;" horiz-adv-x="470" 
d="M591.5 211q7.5 -12 7.5 -33q0 -40 -19 -62q-41 -51 -87 -86t-89 -35q-33 0 -60.5 22.5t-41.5 61.5q-52 -84 -131 -84q-62 0 -99 45t-37 118q0 79 37 151t97.5 115.5t127.5 43.5q23 0 35 -21l17 124h-143q-28 0 -37 10.5t-9 35.5q0 26 10 41t40 15q51 0 96 -3q38 -2 57 -2
l15 98q9 62 78 62q31 0 45 -10t14 -31q0 -5 -2 -17l-19 -91h20q19 0 28.5 -11t9.5 -28q0 -26 -18 -41.5t-60 -22.5q-35 -170 -60 -313q-16 -88 -16 -125q0 -15 7.5 -24t19.5 -9q19 0 46 24.5t73 79.5q12 14 27 14q13 0 20.5 -12zM315 375q-42 -1 -77.5 -31.5t-56.5 -80.5
t-21 -106q0 -31 12.5 -46t34.5 -15t42 26t29 69z" />
    <glyph glyph-name="Emacron" unicode="&#x112;" horiz-adv-x="686" 
d="M780 188q16 0 24 -12t8 -31q0 -30 -14.5 -51t-49.5 -38q-59 -28 -153 -44.5t-185 -16.5q-126 0 -211 28.5t-126.5 78.5t-41.5 113q0 86 55.5 146.5t163.5 87.5q-59 17 -90.5 60t-31.5 96q0 72 45.5 127.5t122.5 85.5t169 30q124 0 186 -53.5t62 -138.5q0 -59 -21.5 -95.5
t-61.5 -36.5q-28 0 -44 12.5t-16 37.5q0 17 5 37q5 33 5 45q0 36 -27 58.5t-90 22.5q-85 0 -136 -36t-51 -97q0 -47 38.5 -77.5t125.5 -33.5q22 -1 31 -10t9 -30q0 -66 -60 -67q-83 -2 -137.5 -23t-79 -53.5t-24.5 -69.5q0 -62 58 -93.5t184 -31.5q83 0 175.5 19.5
t158.5 47.5q15 6 25 6zM315 956q0 25 14 39.5t39 14.5h223q22 0 33.5 -10.5t11.5 -30.5q0 -27 -14 -42t-39 -15h-223q-45 0 -45 44z" />
    <glyph glyph-name="emacron" unicode="&#x113;" horiz-adv-x="393" 
d="M514.5 211q7.5 -12 7.5 -33q0 -40 -19 -62q-37 -45 -104.5 -83t-144.5 -38q-105 0 -163 57t-58 156q0 69 29 128.5t80.5 94.5t116.5 35q58 0 93 -34.5t35 -93.5q0 -69 -49.5 -118.5t-167.5 -78.5q25 -46 95 -46q45 0 102.5 31.5t99.5 82.5q12 14 27 14q13 0 20.5 -12z
M179.5 325q-25.5 -43 -25.5 -104v-2q59 14 93 42t34 65q0 19 -10.5 30.5t-28.5 11.5q-37 0 -62.5 -43zM119.5 543q-11.5 11 -11.5 31q0 24 14 38t39 14h223q22 0 33.5 -10.5t11.5 -28.5q0 -26 -14 -40.5t-39 -14.5h-223q-22 0 -33.5 11z" />
    <glyph glyph-name="Ebreve" unicode="&#x114;" horiz-adv-x="686" 
d="M780 188q16 0 24 -12t8 -31q0 -30 -14.5 -51t-49.5 -38q-59 -28 -153 -44.5t-185 -16.5q-126 0 -211 28.5t-126.5 78.5t-41.5 113q0 86 55.5 146.5t163.5 87.5q-59 17 -90.5 60t-31.5 96q0 72 45.5 127.5t122.5 85.5t169 30q124 0 186 -53.5t62 -138.5q0 -59 -21.5 -95.5
t-61.5 -36.5q-28 0 -44 12.5t-16 37.5q0 17 5 37q5 33 5 45q0 36 -27 58.5t-90 22.5q-85 0 -136 -36t-51 -97q0 -47 38.5 -77.5t125.5 -33.5q22 -1 31 -10t9 -30q0 -66 -60 -67q-83 -2 -137.5 -23t-79 -53.5t-24.5 -69.5q0 -62 58 -93.5t184 -31.5q83 0 175.5 19.5
t158.5 47.5q15 6 25 6zM372.5 932.5q-45.5 20.5 -69 53t-23.5 66.5q0 21 17 33t42 12q20 0 31.5 -7.5t19.5 -25.5q15 -32 37 -44t61 -12t63 14.5t44 44.5t57 30q19 0 31 -10t12 -28q0 -32 -26 -66.5t-75 -57.5t-114 -23q-62 0 -107.5 20.5z" />
    <glyph glyph-name="ebreve" unicode="&#x115;" horiz-adv-x="393" 
d="M514.5 211q7.5 -12 7.5 -33q0 -40 -19 -62q-37 -45 -104.5 -83t-144.5 -38q-105 0 -163 57t-58 156q0 69 29 128.5t80.5 94.5t116.5 35q58 0 93 -34.5t35 -93.5q0 -69 -49.5 -118.5t-167.5 -78.5q25 -46 95 -46q45 0 102.5 31.5t99.5 82.5q12 14 27 14q13 0 20.5 -12z
M179.5 325q-25.5 -43 -25.5 -104v-2q59 14 93 42t34 65q0 19 -10.5 30.5t-28.5 11.5q-37 0 -62.5 -43zM166 557q-45 25 -68 64t-23 80q0 25 16 40t41 15q40 0 51 -40q12 -42 37 -65t61 -23q40 0 63.5 24.5t43.5 66.5q18 37 53 37q22 0 33.5 -12.5t11.5 -34.5
q0 -39 -25.5 -80t-74 -69t-113.5 -28q-62 0 -107 25z" />
    <glyph glyph-name="Edotaccent" unicode="&#x116;" horiz-adv-x="686" 
d="M780 188q16 0 24 -12t8 -31q0 -30 -14.5 -51t-49.5 -38q-59 -28 -153 -44.5t-185 -16.5q-126 0 -211 28.5t-126.5 78.5t-41.5 113q0 86 55.5 146.5t163.5 87.5q-59 17 -90.5 60t-31.5 96q0 72 45.5 127.5t122.5 85.5t169 30q124 0 186 -53.5t62 -138.5q0 -59 -21.5 -95.5
t-61.5 -36.5q-28 0 -44 12.5t-16 37.5q0 17 5 37q5 33 5 45q0 36 -27 58.5t-90 22.5q-85 0 -136 -36t-51 -97q0 -47 38.5 -77.5t125.5 -33.5q22 -1 31 -10t9 -30q0 -66 -60 -67q-83 -2 -137.5 -23t-79 -53.5t-24.5 -69.5q0 -62 58 -93.5t184 -31.5q83 0 175.5 19.5
t158.5 47.5q15 6 25 6zM413 932.5q-22 20.5 -22 55.5q0 36 28.5 60t69.5 24q38 0 61.5 -18.5t23.5 -52.5q0 -41 -27 -65t-70 -24q-42 0 -64 20.5z" />
    <glyph glyph-name="edotaccent" unicode="&#x117;" horiz-adv-x="393" 
d="M514.5 211q7.5 -12 7.5 -33q0 -40 -19 -62q-37 -45 -104.5 -83t-144.5 -38q-105 0 -163 57t-58 156q0 69 29 128.5t80.5 94.5t116.5 35q58 0 93 -34.5t35 -93.5q0 -69 -49.5 -118.5t-167.5 -78.5q25 -46 95 -46q45 0 102.5 31.5t99.5 82.5q12 14 27 14q13 0 20.5 -12z
M179.5 325q-25.5 -43 -25.5 -104v-2q59 14 93 42t34 65q0 19 -10.5 30.5t-28.5 11.5q-37 0 -62.5 -43zM207 551.5q-21 19.5 -21 54.5t27.5 58.5t68.5 23.5q37 0 60 -18t23 -51q0 -40 -26 -63.5t-69 -23.5q-42 0 -63 19.5z" />
    <glyph glyph-name="Eogonek" unicode="&#x118;" horiz-adv-x="686" 
d="M780 188q16 0 24 -12t8 -31q0 -30 -14.5 -51t-49.5 -38q-45 -22 -113.5 -37t-144.5 -21q-52 -42 -52 -99q0 -29 18 -44t44 -15t47 7q16 6 27 6q14 0 20 -9.5t6 -28.5q0 -21 -11 -35.5t-36 -23.5q-12 -4 -31.5 -7t-35.5 -3q-70 0 -112 36.5t-42 99.5q0 62 41 114
q-113 4 -190 33.5t-114.5 77.5t-37.5 108q0 86 55.5 146.5t163.5 87.5q-59 17 -90.5 60t-31.5 96q0 72 45.5 127.5t122.5 85.5t169 30q124 0 186 -53.5t62 -138.5q0 -59 -21.5 -95.5t-61.5 -36.5q-28 0 -44 12.5t-16 37.5q0 17 5 37q5 33 5 45q0 36 -27 58.5t-90 22.5
q-85 0 -136 -36t-51 -97q0 -47 38.5 -77.5t125.5 -33.5q22 -1 31 -10t9 -30q0 -66 -60 -67q-83 -2 -137.5 -23t-79 -53.5t-24.5 -69.5q0 -62 58 -93.5t184 -31.5q83 0 175.5 19.5t158.5 47.5q15 6 25 6z" />
    <glyph glyph-name="eogonek" unicode="&#x119;" horiz-adv-x="393" 
d="M514.5 211q7.5 -12 7.5 -33q0 -40 -19 -62q-54 -67 -161 -107q-46 -17 -66.5 -46.5t-20.5 -60.5t18 -46.5t44 -15.5t47 7q17 6 27 6q26 0 26 -37q0 -40 -47 -56q-12 -4 -31.5 -7t-35.5 -3q-69 0 -109.5 35.5t-40.5 96.5q0 36 12.5 64t37.5 53q-81 12 -125.5 67t-44.5 142
q0 69 29 128.5t80.5 94.5t116.5 35q58 0 93 -34.5t35 -93.5q0 -69 -49.5 -118.5t-167.5 -78.5q25 -46 95 -46q45 0 102.5 31.5t99.5 82.5q12 14 27 14q13 0 20.5 -12zM179.5 325q-25.5 -43 -25.5 -104v-2q59 14 93 42t34 65q0 19 -10.5 30.5t-28.5 11.5q-37 0 -62.5 -43z
" />
    <glyph glyph-name="Ecaron" unicode="&#x11a;" horiz-adv-x="686" 
d="M780 188q16 0 24 -12t8 -31q0 -30 -14.5 -51t-49.5 -38q-59 -28 -153 -44.5t-185 -16.5q-126 0 -211 28.5t-126.5 78.5t-41.5 113q0 86 55.5 146.5t163.5 87.5q-59 17 -90.5 60t-31.5 96q0 72 45.5 127.5t122.5 85.5t169 30q124 0 186 -53.5t62 -138.5q0 -59 -21.5 -95.5
t-61.5 -36.5q-28 0 -44 12.5t-16 37.5q0 17 5 37q5 33 5 45q0 36 -27 58.5t-90 22.5q-85 0 -136 -36t-51 -97q0 -47 38.5 -77.5t125.5 -33.5q22 -1 31 -10t9 -30q0 -66 -60 -67q-83 -2 -137.5 -23t-79 -53.5t-24.5 -69.5q0 -62 58 -93.5t184 -31.5q83 0 175.5 19.5
t158.5 47.5q15 6 25 6zM429 928q-18 16 -37 53l-50 99q-10 20 -10 37q0 21 14 32.5t35 11.5t34 -8t20 -28l48 -126l78 123q14 22 28 30.5t37 8.5q19 0 31.5 -9.5t12.5 -26.5q0 -19 -17 -42l-84 -115q-21 -29 -43 -42.5t-51 -13.5q-28 0 -46 16z" />
    <glyph glyph-name="ecaron" unicode="&#x11b;" horiz-adv-x="393" 
d="M514.5 211q7.5 -12 7.5 -33q0 -40 -19 -62q-37 -45 -104.5 -83t-144.5 -38q-105 0 -163 57t-58 156q0 69 29 128.5t80.5 94.5t116.5 35q58 0 93 -34.5t35 -93.5q0 -69 -49.5 -118.5t-167.5 -78.5q25 -46 95 -46q45 0 102.5 31.5t99.5 82.5q12 14 27 14q13 0 20.5 -12z
M179.5 325q-25.5 -43 -25.5 -104v-2q59 14 93 42t34 65q0 19 -10.5 30.5t-28.5 11.5q-37 0 -62.5 -43zM215 549q-17 18 -26 57l-44 180q-3 12 -3 22q0 25 16.5 38.5t39.5 13.5t37 -11.5t18 -42.5l23 -177l87 177q15 31 32 42t38 11t33.5 -9.5t12.5 -27.5q0 -17 -11 -36
l-112 -193q-18 -31 -40.5 -46.5t-53.5 -15.5q-30 0 -47 18z" />
    <glyph glyph-name="Gcircumflex" unicode="&#x11c;" horiz-adv-x="811" 
d="M912.5 208.5q7.5 -12.5 7.5 -31.5q0 -23 -7 -36t-22 -23q-59 -39 -188 -128q-39 -207 -101 -326t-157 -119q-51 0 -83 31.5t-32 82.5q0 47 21 95t78.5 111t162.5 144l3 19q-79 -33 -155 -33q-112 0 -197 43.5t-132 123.5t-47 186q0 148 56 261.5t154.5 176t220.5 62.5
q117 0 175.5 -54.5t58.5 -144.5q0 -59 -21.5 -94.5t-61.5 -35.5q-27 0 -43.5 13t-16.5 36q0 10 4 34q6 28 6 44q0 42 -25.5 65t-85.5 23q-73 0 -135.5 -42t-100.5 -125.5t-38 -200.5q0 -120 65.5 -185.5t189.5 -65.5q69 0 144 31l14 122h-102q-28 0 -43 13.5t-15 44.5
q0 28 15 44t40 16h187q22 0 36.5 -14.5t11.5 -41.5q-3 -32 -20 -145l-11 -76q80 60 146 104q13 8 23 8q13 0 20.5 -12.5zM513 -299q31 59 58 190q-76 -65 -109.5 -117.5t-33.5 -92.5q0 -39 28 -39q26 0 57 59zM527 1093l-80 -142q-11 -20 -29 -30t-37 -10q-21 0 -36 11.5
t-15 30.5q0 17 13 37l92 137q37 56 105 56q31 0 49.5 -16t33.5 -53l47 -121q6 -15 6 -28q0 -24 -17 -38.5t-40 -14.5q-17 0 -31.5 9.5t-19.5 26.5z" />
    <glyph glyph-name="gcircumflex" unicode="&#x11d;" horiz-adv-x="479" 
d="M580.5 208.5q7.5 -12.5 7.5 -31.5q0 -23 -7 -36t-22 -23q-86 -58 -126 -86l-64 -43q-38 -207 -99.5 -325.5t-156.5 -118.5q-51 0 -83 31.5t-32 82.5q0 71 56 152.5t210 200.5l6 39q-17 -27 -44.5 -41.5t-54.5 -14.5q-62 0 -99 45t-37 118q0 80 37 151.5t98.5 115
t130.5 43.5q22 0 29.5 -8.5t12.5 -30.5q19 4 44 4t35.5 -7.5t10.5 -29.5q0 -12 -1 -19q-4 -31 -25 -157q-4 -24 -8.5 -52.5t-9.5 -60.5q77 60 148 106q13 8 23 8q13 0 20.5 -12.5zM251 124q21 28 30 80l32 171q-41 -1 -76 -31.5t-56 -80.5t-21 -106q0 -31 12.5 -46t34.5 -15
q23 0 44 28zM180.5 -298q31.5 60 60.5 191q-77 -66 -111 -119t-34 -93q0 -17 6.5 -28t21.5 -11q25 0 56.5 60zM383 542.5q-14 11.5 -18 42.5l-23 177l-87 -177q-15 -31 -32 -42t-38 -11t-33.5 9.5t-12.5 27.5q0 17 11 36l112 193q18 31 40.5 46.5t53.5 15.5q30 0 47 -18
t26 -57l44 -180q3 -12 3 -22q0 -25 -16.5 -38.5t-39.5 -13.5t-37 11.5z" />
    <glyph glyph-name="Gbreve" unicode="&#x11e;" horiz-adv-x="811" 
d="M912.5 208.5q7.5 -12.5 7.5 -31.5q0 -23 -7 -36t-22 -23q-59 -39 -188 -128q-39 -207 -101 -326t-157 -119q-51 0 -83 31.5t-32 82.5q0 47 21 95t78.5 111t162.5 144l3 19q-79 -33 -155 -33q-112 0 -197 43.5t-132 123.5t-47 186q0 148 56 261.5t154.5 176t220.5 62.5
q117 0 175.5 -54.5t58.5 -144.5q0 -59 -21.5 -94.5t-61.5 -35.5q-27 0 -43.5 13t-16.5 36q0 10 4 34q6 28 6 44q0 42 -25.5 65t-85.5 23q-73 0 -135.5 -42t-100.5 -125.5t-38 -200.5q0 -120 65.5 -185.5t189.5 -65.5q69 0 144 31l14 122h-102q-28 0 -43 13.5t-15 44.5
q0 28 15 44t40 16h187q22 0 36.5 -14.5t11.5 -41.5q-3 -32 -20 -145l-11 -76q80 60 146 104q13 8 23 8q13 0 20.5 -12.5zM513 -299q31 59 58 190q-76 -65 -109.5 -117.5t-33.5 -92.5q0 -39 28 -39q26 0 57 59zM401.5 932.5q-45.5 20.5 -69 53t-23.5 66.5q0 21 17 33t42 12
q20 0 31.5 -7.5t19.5 -25.5q15 -32 37 -44t61 -12t63 14.5t44 44.5t57 30q19 0 31 -10t12 -28q0 -32 -26 -66.5t-75 -57.5t-114 -23q-62 0 -107.5 20.5z" />
    <glyph glyph-name="gbreve" unicode="&#x11f;" horiz-adv-x="479" 
d="M580.5 208.5q7.5 -12.5 7.5 -31.5q0 -23 -7 -36t-22 -23q-86 -58 -126 -86l-64 -43q-38 -207 -99.5 -325.5t-156.5 -118.5q-51 0 -83 31.5t-32 82.5q0 71 56 152.5t210 200.5l6 39q-17 -27 -44.5 -41.5t-54.5 -14.5q-62 0 -99 45t-37 118q0 80 37 151.5t98.5 115
t130.5 43.5q22 0 29.5 -8.5t12.5 -30.5q19 4 44 4t35.5 -7.5t10.5 -29.5q0 -12 -1 -19q-4 -31 -25 -157q-4 -24 -8.5 -52.5t-9.5 -60.5q77 60 148 106q13 8 23 8q13 0 20.5 -12.5zM251 124q21 28 30 80l32 171q-41 -1 -76 -31.5t-56 -80.5t-21 -106q0 -31 12.5 -46t34.5 -15
q23 0 44 28zM180.5 -298q31.5 60 60.5 191q-77 -66 -111 -119t-34 -93q0 -17 6.5 -28t21.5 -11q25 0 56.5 60zM208 557q-45 25 -68 64t-23 80q0 25 16 40t41 15q40 0 51 -40q12 -42 37 -65t61 -23q40 0 63.5 24.5t43.5 66.5q18 37 53 37q22 0 33.5 -12.5t11.5 -34.5
q0 -39 -25.5 -80t-74 -69t-113.5 -28q-62 0 -107 25z" />
    <glyph glyph-name="Gdotaccent" unicode="&#x120;" horiz-adv-x="811" 
d="M912.5 208.5q7.5 -12.5 7.5 -31.5q0 -23 -7 -36t-22 -23q-59 -39 -188 -128q-39 -207 -101 -326t-157 -119q-51 0 -83 31.5t-32 82.5q0 47 21 95t78.5 111t162.5 144l3 19q-79 -33 -155 -33q-112 0 -197 43.5t-132 123.5t-47 186q0 148 56 261.5t154.5 176t220.5 62.5
q117 0 175.5 -54.5t58.5 -144.5q0 -59 -21.5 -94.5t-61.5 -35.5q-27 0 -43.5 13t-16.5 36q0 10 4 34q6 28 6 44q0 42 -25.5 65t-85.5 23q-73 0 -135.5 -42t-100.5 -125.5t-38 -200.5q0 -120 65.5 -185.5t189.5 -65.5q69 0 144 31l14 122h-102q-28 0 -43 13.5t-15 44.5
q0 28 15 44t40 16h187q22 0 36.5 -14.5t11.5 -41.5q-3 -32 -20 -145l-11 -76q80 60 146 104q13 8 23 8q13 0 20.5 -12.5zM513 -299q31 59 58 190q-76 -65 -109.5 -117.5t-33.5 -92.5q0 -39 28 -39q26 0 57 59zM442 932.5q-22 20.5 -22 55.5q0 36 28.5 60t69.5 24
q38 0 61.5 -18.5t23.5 -52.5q0 -41 -27 -65t-70 -24q-42 0 -64 20.5z" />
    <glyph glyph-name="gdotaccent" unicode="&#x121;" horiz-adv-x="479" 
d="M580.5 208.5q7.5 -12.5 7.5 -31.5q0 -23 -7 -36t-22 -23q-86 -58 -126 -86l-64 -43q-38 -207 -99.5 -325.5t-156.5 -118.5q-51 0 -83 31.5t-32 82.5q0 71 56 152.5t210 200.5l6 39q-17 -27 -44.5 -41.5t-54.5 -14.5q-62 0 -99 45t-37 118q0 80 37 151.5t98.5 115
t130.5 43.5q22 0 29.5 -8.5t12.5 -30.5q19 4 44 4t35.5 -7.5t10.5 -29.5q0 -12 -1 -19q-4 -31 -25 -157q-4 -24 -8.5 -52.5t-9.5 -60.5q77 60 148 106q13 8 23 8q13 0 20.5 -12.5zM251 124q21 28 30 80l32 171q-41 -1 -76 -31.5t-56 -80.5t-21 -106q0 -31 12.5 -46t34.5 -15
q23 0 44 28zM180.5 -298q31.5 60 60.5 191q-77 -66 -111 -119t-34 -93q0 -17 6.5 -28t21.5 -11q25 0 56.5 60zM249 551.5q-21 19.5 -21 54.5t27.5 58.5t68.5 23.5q37 0 60 -18t23 -51q0 -40 -26 -63.5t-69 -23.5q-42 0 -63 19.5z" />
    <glyph glyph-name="uni0122" unicode="&#x122;" horiz-adv-x="811" 
d="M912.5 208.5q7.5 -12.5 7.5 -31.5q0 -23 -7 -36t-22 -23q-59 -39 -188 -128q-39 -207 -101 -326t-157 -119q-51 0 -83 31.5t-32 82.5q0 47 21 95t78.5 111t162.5 144l3 19q-79 -33 -155 -33q-112 0 -197 43.5t-132 123.5t-47 186q0 148 56 261.5t154.5 176t220.5 62.5
q117 0 175.5 -54.5t58.5 -144.5q0 -59 -21.5 -94.5t-61.5 -35.5q-27 0 -43.5 13t-16.5 36q0 10 4 34q6 28 6 44q0 42 -25.5 65t-85.5 23q-73 0 -135.5 -42t-100.5 -125.5t-38 -200.5q0 -120 65.5 -185.5t189.5 -65.5q69 0 144 31l14 122h-102q-28 0 -43 13.5t-15 44.5
q0 28 15 44t40 16h187q22 0 36.5 -14.5t11.5 -41.5q-3 -32 -20 -145l-11 -76q80 60 146 104q13 8 23 8q13 0 20.5 -12.5zM513 -299q31 59 58 190q-76 -65 -109.5 -117.5t-33.5 -92.5q0 -39 28 -39q26 0 57 59zM215 -243q-13 11 -12 30l3 102q1 31 18.5 46t41.5 15
q25 0 43.5 -14.5t18.5 -41.5q0 -14 -6 -30l-29 -85q-5 -16 -18.5 -24.5t-28.5 -8.5q-18 0 -31 11z" />
    <glyph glyph-name="uni0123" unicode="&#x123;" horiz-adv-x="479" 
d="M580.5 208.5q7.5 -12.5 7.5 -31.5q0 -23 -7 -36t-22 -23q-86 -58 -126 -86l-64 -43q-38 -207 -99.5 -325.5t-156.5 -118.5q-51 0 -83 31.5t-32 82.5q0 71 56 152.5t210 200.5l6 39q-17 -27 -44.5 -41.5t-54.5 -14.5q-62 0 -99 45t-37 118q0 80 37 151.5t98.5 115
t130.5 43.5q22 0 29.5 -8.5t12.5 -30.5q19 4 44 4t35.5 -7.5t10.5 -29.5q0 -12 -1 -19q-4 -31 -25 -157q-4 -24 -8.5 -52.5t-9.5 -60.5q77 60 148 106q13 8 23 8q13 0 20.5 -12.5zM251 124q21 28 30 80l32 171q-41 -1 -76 -31.5t-56 -80.5t-21 -106q0 -31 12.5 -46t34.5 -15
q23 0 44 28zM180.5 -298q31.5 60 60.5 191q-77 -66 -111 -119t-34 -93q0 -17 6.5 -28t21.5 -11q25 0 56.5 60zM283 542.5q-11 10.5 -10 30.5l6 132q1 33 20.5 48t45.5 15q24 0 39.5 -14.5t15.5 -41.5q0 -18 -5 -32l-39 -115q-11 -33 -45 -33q-17 0 -28 10.5z" />
    <glyph glyph-name="Hcircumflex" unicode="&#x124;" horiz-adv-x="873" 
d="M994.5 211q7.5 -12 7.5 -33q0 -39 -19 -62q-99 -121 -211 -121q-97 0 -155 75t-58 215q0 34 3 68q-66 -12 -144 -18q-52 -4 -71 -5q-20 -102 -56 -250q-21 -87 -80 -87q-64 0 -64 58q0 13 5 36q34 137 54 232l-48 -2q-33 0 -48 11.5t-15 37.5q0 33 19 48.5t63 17.5l53 2
q26 141 26 215q0 47 -14 64t-37 17q-70 0 -158 -117q-13 -17 -29 -17q-14 0 -24 13t-10 33q0 31 25 66q44 61 111 100.5t136 39.5q65 0 100.5 -44.5t35.5 -138.5q0 -83 -24 -225l98 5q63 3 108 10q18 110 55 206t92 156t123 60q50 0 79 -39.5t29 -103.5q0 -248 -253 -344
q-3 -40 -3 -83q0 -105 26 -149t73 -44q41 0 75 21.5t77 73.5q12 14 27 14q13 0 20.5 -12zM792.5 750q-24.5 -40 -46.5 -109t-35 -151q80 33 118 94t38 157q0 23 -8 36t-20 13q-22 0 -46.5 -40zM561 1093l-80 -142q-11 -20 -29 -30t-37 -10q-21 0 -36 11.5t-15 30.5
q0 17 13 37l92 137q37 56 105 56q31 0 49.5 -16t33.5 -53l47 -121q6 -15 6 -28q0 -24 -17 -38.5t-40 -14.5q-17 0 -31.5 9.5t-19.5 26.5z" />
    <glyph glyph-name="hcircumflex" unicode="&#x125;" horiz-adv-x="502" 
d="M623.5 211q7.5 -12 7.5 -33q0 -40 -19 -62q-46 -53 -94.5 -87t-110.5 -34q-51 0 -77 29.5t-26 85.5q0 28 14 100q13 63 13 87q0 16 -11 16q-13 0 -37 -33.5t-48 -88.5t-39 -116q-19 -80 -94 -80q-30 0 -39.5 21.5t-9.5 77.5q0 32 1 51l1 80q0 154 31.5 321t93 280.5
t147.5 113.5q46 0 74.5 -39.5t28.5 -102.5q0 -101 -59 -209.5t-192 -253.5q-3 -52 -3 -107q33 85 73.5 138.5t80 76.5t72.5 23q65 0 65 -65q0 -39 -22 -141q-19 -87 -19 -115q0 -40 29 -40q20 0 47.5 24.5t73.5 79.5q12 14 27 14q13 0 20.5 -12zM266 789.5
q-22 -51.5 -42.5 -139t-33.5 -190.5q62 73 102.5 159t40.5 156q0 32 -7 49t-20 17q-18 0 -40 -51.5zM360 1183l-80 -142q-11 -20 -29 -30t-37 -10q-21 0 -36 11.5t-15 30.5q0 17 13 37l92 137q37 56 105 56q31 0 49.5 -16t33.5 -53l47 -121q6 -15 6 -28q0 -24 -17 -38.5
t-40 -14.5q-17 0 -31.5 9.5t-19.5 26.5z" />
    <glyph glyph-name="Hbar" unicode="&#x126;" horiz-adv-x="856" 
d="M776 599q-7 -53 -18 -108h29q32 0 46.5 -14t14.5 -37q0 -34 -18 -52t-67 -18h-25l-2 -13q-11 -67 -22.5 -155.5t-15.5 -136.5q-3 -37 -22 -53.5t-53 -16.5q-69 0 -69 60q0 32 9.5 97.5t28.5 176.5l4 26l3 15h-181l-137 -2l-2 -11q-11 -67 -22.5 -155.5t-15.5 -136.5
q-3 -37 -22 -53.5t-53 -16.5q-69 0 -69 60q0 32 9.5 97.5t28.5 176.5l4 26l2 10l-32 -1q-53 0 -53 47q0 36 19 54.5t65 18.5h22v2q10 51 17 109l-39 -1q-52 0 -52 40q0 31 19 47t65 16h20q7 53 8 81q3 37 23 53.5t58 16.5q63 0 63 -60q0 -31 -9 -90l133 1q67 0 181 2
q1 9 8 77q3 37 23 53.5t58 16.5q63 0 63 -60q0 -27 -8 -85h26q32 0 46.5 -12t14.5 -32q0 -29 -18 -44.5t-67 -15.5h-19zM636 599h-186l-131 -1l-18 -110l-1 -3l136 1l183 3q9 49 17 110z" />
    <glyph glyph-name="hbar" unicode="&#x127;" horiz-adv-x="502" 
d="M623.5 211q7.5 -12 7.5 -33q0 -40 -19 -62q-43 -53 -92.5 -87t-112.5 -34q-51 0 -77 29.5t-26 85.5q0 28 14 100q13 63 13 87q0 16 -11 16q-13 0 -37 -33.5t-48 -88.5t-39 -116q-11 -47 -25.5 -63.5t-45.5 -16.5q-36 0 -52 32.5t-16 109.5q0 38 5 108q9 133 51 332
q-32 6 -46 17.5t-14 29.5q0 49 38 49q32 0 44 -1q9 38 23 84q12 41 30.5 56.5t49.5 15.5q59 0 59 -42q0 -13 -4 -26l-25 -91q14 0 46 2q50 2 81 2q30 0 40 -14t10 -37q0 -26 -17.5 -38.5t-48.5 -12.5h-135q-38 -151 -68 -343q33 85 73.5 138.5t80 76.5t72.5 23q65 0 65 -65
q0 -39 -22 -141q-19 -87 -19 -115q0 -40 29 -40q20 0 47.5 24.5t73.5 79.5q12 14 27 14q13 0 20.5 -12z" />
    <glyph glyph-name="Itilde" unicode="&#x128;" horiz-adv-x="495" 
d="M538 829.5q18 -12.5 18 -30.5q0 -32 -20 -51.5t-57 -19.5q-58 0 -88 -1l-18 -108q-18 -107 -22 -131l-21 -131q-22 -147 -35 -246q21 1 57 1q53 0 72 -14t19 -42q0 -26 -20.5 -44t-57.5 -18q-25 0 -79 2q-50 2 -66 2q-63 0 -138 -11q-33 -5 -47 -5q-22 0 -37 12t-15 35
q0 36 32 56t90 21l47 1l3 22q24 160 35 226l22 131q20 116 36 239l-84 -1q-36 0 -49.5 11.5t-13.5 32.5q0 68 98 73q46 2 112 2l183 -1q26 0 44 -12.5zM417 917.5q-14 5.5 -36 20.5l-107 74l-44 -63q-8 -11 -20.5 -16.5t-25.5 -5.5q-19 0 -32.5 10t-13.5 29q0 27 37 81
q44 64 97 64q17 0 30.5 -5t35.5 -21l107 -74l44 63q8 11 20.5 16.5t25.5 5.5q19 0 32.5 -10t13.5 -29q0 -13 -8 -29.5t-29 -51.5q-20 -33 -45 -48.5t-52 -15.5q-16 0 -30 5.5z" />
    <glyph glyph-name="itilde" unicode="&#x129;" horiz-adv-x="246" 
d="M76.5 41q-29.5 46 -29.5 122q0 45 11.5 115.5t29.5 131.5q9 32 24 44t48 12q51 0 51 -34q0 -25 -19 -116q-24 -110 -24 -149q0 -30 8 -46t27 -16q18 0 45 25t72 79q12 14 27 14q13 0 20.5 -12t7.5 -33q0 -40 -19 -62q-99 -121 -185 -121q-65 0 -94.5 46zM239 537.5
q-14 5.5 -36 20.5l-107 74l-44 -63q-16 -22 -45 -22q-18 0 -30.5 10.5t-12.5 28.5q0 23 37 77q23 33 45 48.5t48 15.5q17 0 30.5 -5t35.5 -21l107 -74l44 63q16 22 45 22q18 0 30.5 -10.5t12.5 -28.5q0 -14 -9.5 -31.5t-27.5 -45.5q-23 -33 -45 -48.5t-48 -15.5
q-16 0 -30 5.5z" />
    <glyph glyph-name="Imacron" unicode="&#x12a;" horiz-adv-x="495" 
d="M538 829.5q18 -12.5 18 -30.5q0 -32 -20 -51.5t-57 -19.5q-58 0 -88 -1l-18 -108q-18 -107 -22 -131l-21 -131q-22 -147 -35 -246q21 1 57 1q53 0 72 -14t19 -42q0 -26 -20.5 -44t-57.5 -18q-25 0 -79 2q-50 2 -66 2q-63 0 -138 -11q-33 -5 -47 -5q-22 0 -37 12t-15 35
q0 36 32 56t90 21l47 1l3 22q24 160 35 226l22 131q20 116 36 239l-84 -1q-36 0 -49.5 11.5t-13.5 32.5q0 68 98 73q46 2 112 2l183 -1q26 0 44 -12.5zM187 956q0 25 14 39.5t39 14.5h223q22 0 33.5 -10.5t11.5 -30.5q0 -27 -14 -42t-39 -15h-223q-45 0 -45 44z" />
    <glyph glyph-name="imacron" unicode="&#x12b;" horiz-adv-x="246" 
d="M76.5 41q-29.5 46 -29.5 122q0 45 11.5 115.5t29.5 131.5q9 32 24 44t48 12q51 0 51 -34q0 -25 -19 -116q-24 -110 -24 -149q0 -30 8 -46t27 -16q18 0 45 25t72 79q12 14 27 14q13 0 20.5 -12t7.5 -33q0 -40 -19 -62q-99 -121 -185 -121q-65 0 -94.5 46zM20.5 543
q-11.5 11 -11.5 31q0 24 14 38t39 14h223q22 0 33.5 -10.5t11.5 -28.5q0 -26 -14 -40.5t-39 -14.5h-223q-22 0 -33.5 11z" />
    <glyph glyph-name="Ibreve" unicode="&#x12c;" horiz-adv-x="495" 
d="M538 829.5q18 -12.5 18 -30.5q0 -32 -20 -51.5t-57 -19.5q-58 0 -88 -1l-18 -108q-18 -107 -22 -131l-21 -131q-22 -147 -35 -246q21 1 57 1q53 0 72 -14t19 -42q0 -26 -20.5 -44t-57.5 -18q-25 0 -79 2q-50 2 -66 2q-63 0 -138 -11q-33 -5 -47 -5q-22 0 -37 12t-15 35
q0 36 32 56t90 21l47 1l3 22q24 160 35 226l22 131q20 116 36 239l-84 -1q-36 0 -49.5 11.5t-13.5 32.5q0 68 98 73q46 2 112 2l183 -1q26 0 44 -12.5zM244.5 932.5q-45.5 20.5 -69 53t-23.5 66.5q0 21 17 33t42 12q20 0 31.5 -7.5t19.5 -25.5q15 -32 37 -44t61 -12t63 14.5
t44 44.5t57 30q19 0 31 -10t12 -28q0 -32 -26 -66.5t-75 -57.5t-114 -23q-62 0 -107.5 20.5z" />
    <glyph glyph-name="ibreve" unicode="&#x12d;" horiz-adv-x="246" 
d="M76.5 41q-29.5 46 -29.5 122q0 45 11.5 115.5t29.5 131.5q9 32 24 44t48 12q51 0 51 -34q0 -25 -19 -116q-24 -110 -24 -149q0 -30 8 -46t27 -16q18 0 45 25t72 79q12 14 27 14q13 0 20.5 -12t7.5 -33q0 -40 -19 -62q-99 -121 -185 -121q-65 0 -94.5 46zM67 557
q-45 25 -68 64t-23 80q0 25 16 40t41 15q40 0 51 -40q12 -42 37 -65t61 -23q40 0 63.5 24.5t43.5 66.5q18 37 53 37q22 0 33.5 -12.5t11.5 -34.5q0 -39 -25.5 -80t-74 -69t-113.5 -28q-62 0 -107 25z" />
    <glyph glyph-name="Iogonek" unicode="&#x12e;" horiz-adv-x="495" 
d="M538 829.5q18 -12.5 18 -30.5q0 -32 -20 -51.5t-57 -19.5q-58 0 -88 -1l-18 -108q-18 -107 -22 -131l-21 -131q-22 -147 -35 -246q21 1 57 1q53 0 72 -14t19 -42q0 -26 -20.5 -44t-57.5 -18q-23 0 -73 2l-35 1q-51 -43 -51 -98q0 -29 18 -44t44 -15t47 7q17 6 27 6
q14 0 20 -9.5t6 -28.5q0 -21 -11 -35.5t-36 -23.5q-12 -4 -31.5 -7t-35.5 -3q-70 0 -112 36.5t-42 99.5q0 61 40 112q-9 -1 -55 -7q-35 -5 -50 -5q-22 0 -37 12t-15 35q0 36 32 56t90 21l47 1l3 22q24 160 35 226l22 131q20 116 36 239l-84 -1q-36 0 -49.5 11.5t-13.5 32.5
q0 68 98 73q46 2 112 2l183 -1q26 0 44 -12.5z" />
    <glyph glyph-name="iogonek" unicode="&#x12f;" horiz-adv-x="246" 
d="M108 551.5q-21 19.5 -21 54.5t27.5 58.5t68.5 23.5q37 0 60 -18t23 -51q0 -40 -26 -63.5t-69 -23.5q-42 0 -63 19.5zM66.5 -214.5q-40.5 35.5 -40.5 96.5q0 42 21 79.5t50 56.5q-50 40 -50 145q0 45 11.5 115.5t29.5 131.5q9 32 24 44t48 12q51 0 51 -34q0 -25 -19 -116
q-24 -110 -24 -149q0 -30 8 -46t27 -16q18 0 45 25t72 79q12 14 27 14q13 0 20.5 -12t7.5 -33q0 -40 -19 -62q-53 -65 -141 -116q-46 -26 -66.5 -50t-20.5 -51q0 -29 18 -44t44 -15t47 7q17 6 27 6q26 0 26 -37q0 -40 -47 -56q-12 -4 -31.5 -7t-35.5 -3q-69 0 -109.5 35.5z
" />
    <glyph glyph-name="Idotaccent" unicode="&#x130;" horiz-adv-x="495" 
d="M538 829.5q18 -12.5 18 -30.5q0 -32 -20 -51.5t-57 -19.5q-58 0 -88 -1l-18 -108q-18 -107 -22 -131l-21 -131q-22 -147 -35 -246q21 1 57 1q53 0 72 -14t19 -42q0 -26 -20.5 -44t-57.5 -18q-25 0 -79 2q-50 2 -66 2q-63 0 -138 -11q-33 -5 -47 -5q-22 0 -37 12t-15 35
q0 36 32 56t90 21l47 1l3 22q24 160 35 226l22 131q20 116 36 239l-84 -1q-36 0 -49.5 11.5t-13.5 32.5q0 68 98 73q46 2 112 2l183 -1q26 0 44 -12.5zM285 932.5q-22 20.5 -22 55.5q0 36 28.5 60t69.5 24q38 0 61.5 -18.5t23.5 -52.5q0 -41 -27 -65t-70 -24q-42 0 -64 20.5
z" />
    <glyph glyph-name="dotlessi" unicode="&#x131;" horiz-adv-x="246" 
d="M76.5 41q-29.5 46 -29.5 122q0 45 11.5 115.5t29.5 131.5q9 32 24 44t48 12q51 0 51 -34q0 -25 -19 -116q-24 -110 -24 -149q0 -30 8 -46t27 -16q18 0 45 25t72 79q12 14 27 14q13 0 20.5 -12t7.5 -33q0 -40 -19 -62q-99 -121 -185 -121q-65 0 -94.5 46z" />
    <glyph glyph-name="Jcircumflex" unicode="&#x134;" horiz-adv-x="743" 
d="M753.5 722q-12.5 -15 -40.5 -15q-2 -21 -9 -73q-10 -70 -11 -78q-89 -663 -371 -663q-83 0 -129.5 47t-46.5 118q0 127 108 224.5t284 161.5q11 71 17 127l18 151q-60 6 -112 6q-139 0 -205 -27t-66 -88q0 -30 20 -65q6 -10 6 -21q0 -21 -21.5 -37.5t-46.5 -16.5
q-32 0 -49 27q-28 46 -28 107q0 240 420 240q122 0 218 -24q57 -14 57 -56q0 -30 -12.5 -45zM433 74q49 74 86 259q-244 -107 -244 -262q0 -34 16 -52.5t44 -18.5q49 0 98 74zM471 1093l-80 -142q-11 -20 -29 -30t-37 -10q-21 0 -36 11.5t-15 30.5q0 17 13 37l92 137
q37 56 105 56q31 0 49.5 -16t33.5 -53l47 -121q6 -15 6 -28q0 -24 -17 -38.5t-40 -14.5q-17 0 -31.5 9.5t-19.5 26.5z" />
    <glyph glyph-name="jcircumflex" unicode="&#x135;" horiz-adv-x="254" 
d="M355.5 208.5q7.5 -12.5 7.5 -31.5q0 -23 -7 -36t-22 -23q-70 -46 -187 -127q-39 -208 -101 -327t-158 -119q-52 0 -83.5 31.5t-31.5 82.5q0 71 55 151.5t207 198.5l7 51q14 96 22 189q6 54 19 161q4 29 22 42.5t55 13.5q30 0 39.5 -9t9.5 -25q0 -46 -33 -254l-10 -69
q80 60 146 104q13 8 23 8q13 0 20.5 -12.5zM-44 -299q31 59 58 190q-76 -65 -109.5 -117.5t-33.5 -92.5q0 -39 28 -39q26 0 57 59zM241 542.5q-14 11.5 -18 42.5l-23 177l-87 -177q-15 -31 -32 -42t-38 -11t-33.5 9.5t-12.5 27.5q0 17 11 36l112 193q18 31 40.5 46.5
t53.5 15.5q30 0 47 -18t26 -57l44 -180q3 -12 3 -22q0 -25 -16.5 -38.5t-39.5 -13.5t-37 11.5z" />
    <glyph glyph-name="uni0136" unicode="&#x136;" horiz-adv-x="937" 
d="M1058.5 211q7.5 -12 7.5 -33q0 -39 -19 -62q-48 -58 -97 -89.5t-116 -31.5q-74 0 -121 43.5t-88 135.5q-30 66 -49.5 98.5t-38.5 46t-48 16.5l-11 -74q-21 -143 -81.5 -206t-166.5 -63q-69 0 -122.5 33.5t-74.5 85.5q-7 18 -7 39q0 30 14 52t36 22q13 0 22 -6.5t17 -22.5
q31 -58 54.5 -81t58.5 -23q40 0 68.5 36.5t40.5 112.5l14 95h-16q-23 0 -36 13t-13 36q0 26 13.5 41.5t33.5 15.5h33q7 49 10 68l31 225q-26 3 -49 3q-85 0 -129 -29.5t-44 -84.5q0 -25 5.5 -40.5t14.5 -34.5q4 -8 4 -18q0 -22 -20.5 -38.5t-45.5 -16.5q-32 0 -47 28
q-30 53 -30 114q0 63 34.5 115t104.5 83.5t173 31.5q45 0 82.5 -5t82.5 -19q49 -15 49 -56q0 -55 -47 -55l-39 -269q117 12 190.5 100.5t122.5 240.5q9 28 30.5 43t54.5 15q28 0 43.5 -12.5t15.5 -35.5q0 -7 -4 -23q-50 -165 -143 -262t-203 -129q38 -9 62.5 -27t41.5 -44.5
t39 -73.5q31 -66 58 -93.5t63 -27.5q32 0 61 21.5t73 73.5q12 14 27 14q13 0 20.5 -12zM449 -265q-13 11 -12 30l3 102q1 31 18.5 46t41.5 15q25 0 43.5 -14.5t18.5 -41.5q0 -14 -6 -30l-29 -85q-5 -16 -18.5 -24.5t-28.5 -8.5q-18 0 -31 11z" />
    <glyph glyph-name="uni0137" unicode="&#x137;" horiz-adv-x="525" 
d="M646.5 211q7.5 -12 7.5 -33q0 -40 -19 -62q-45 -55 -91 -88t-109 -33q-77 0 -124 44t-47 117q0 39 40 56q44 19 63 40.5t19 52.5q0 18 -7.5 27t-18.5 9q-27 0 -59.5 -39t-60.5 -100.5t-44 -126.5q-11 -47 -25.5 -63.5t-45.5 -16.5t-45.5 22.5t-19.5 69.5t-5 138
q0 154 31.5 321t93 280.5t147.5 113.5q46 0 74.5 -39.5t28.5 -102.5q0 -101 -59 -209.5t-192 -253.5q-3 -52 -3 -107q48 125 110 181.5t116 56.5q50 0 80.5 -34t30.5 -84q0 -55 -28 -101t-96 -82q4 -27 24.5 -43.5t49.5 -16.5q31 0 60 24t76 80q12 14 27 14q13 0 20.5 -12z
M266 789.5q-22 -51.5 -42.5 -139t-33.5 -190.5q62 73 102.5 159t40.5 156q0 32 -7 49t-20 17q-18 0 -40 -51.5zM173 -297.5q-11 10.5 -10 30.5l6 132q1 33 20.5 48t45.5 15q24 0 39.5 -14.5t15.5 -41.5q0 -18 -5 -32l-39 -115q-11 -33 -45 -33q-17 0 -28 10.5z" />
    <glyph glyph-name="kgreenlandic" unicode="&#x138;" horiz-adv-x="465" 
d="M65.5 35q-15.5 40 -15.5 128q0 130 37 247q9 29 29.5 42.5t57.5 13.5q20 0 28 -5t8 -19q0 -16 -15 -72q-2 -7 -8.5 -32t-12 -58.5t-7.5 -73.5q36 140 91 200t133 60q52 0 81.5 -32.5t29.5 -83.5q0 -42 -18.5 -71t-48.5 -29q-19 0 -30.5 9t-11.5 25q0 7 2 16t3 13
q5 15 5 28q0 27 -26 27q-20 0 -39 -20.5t-30.5 -55t-11.5 -74.5q0 -54 25 -86.5t72 -32.5q37 0 66 24.5t80 85.5q12 14 27 14q13 0 20.5 -12t7.5 -33q0 -40 -19 -62q-45 -54 -90 -87.5t-102 -33.5q-47 0 -85.5 20.5t-62.5 49.5t-31 56q-2 -8 -15 -56q-11 -40 -25.5 -55
t-44.5 -15q-38 0 -53.5 40z" />
    <glyph glyph-name="Lacute" unicode="&#x139;" horiz-adv-x="673" 
d="M794.5 211q7.5 -12 7.5 -33q0 -39 -19 -62q-56 -67 -108.5 -94t-126.5 -27q-52 0 -96 13t-107 39q-57 25 -110 41q-51 -93 -153 -93q-56 0 -89.5 25.5t-33.5 65.5q0 49 47 81.5t125 32.5h13l18 291q6 100 36 165t83 111q46 40 105 60.5t125 20.5q108 0 166 -56t58 -146
q0 -61 -22 -98.5t-61 -37.5q-28 0 -44 13.5t-16 38.5q0 9 4 33q6 28 6 50q0 42 -24.5 66.5t-74.5 24.5q-88 0 -136 -57.5t-61 -180.5l-23 -227q-5 -48 -13 -83q64 -11 160 -35q56 -14 86 -20t53 -6q58 0 99.5 19.5t78.5 62.5q12 14 27 14q13 0 20.5 -12zM484 922.5
q-11 10.5 -11 25.5q0 20 19 36l172 147q20 17 44 17q26 0 45 -18.5t19 -44.5q0 -43 -53 -71l-187 -97q-9 -5 -21 -5q-16 0 -27 10.5z" />
    <glyph glyph-name="lacute" unicode="&#x13a;" horiz-adv-x="326" 
d="M447.5 211q7.5 -12 7.5 -33q0 -40 -19 -62q-43 -53 -93.5 -87t-114.5 -34q-88 0 -130.5 80t-42.5 207q0 122 31.5 278t93 268t146.5 112q48 0 75.5 -44.5t27.5 -127.5q0 -119 -66 -276t-179 -311q7 -41 23 -58.5t42 -17.5q41 0 72 23.5t79 80.5q12 14 27 14
q13 0 20.5 -12zM252 758q-29 -83 -51 -206t-24 -236q71 117 113 234.5t42 214.5q0 76 -28 76q-23 0 -52 -83zM307 1012.5q-11 10.5 -11 25.5q0 20 19 36l172 147q20 17 44 17q26 0 45 -18.5t19 -44.5q0 -43 -53 -71l-187 -97q-9 -5 -21 -5q-16 0 -27 10.5z" />
    <glyph glyph-name="uni013B" unicode="&#x13b;" horiz-adv-x="673" 
d="M794.5 211q7.5 -12 7.5 -33q0 -39 -19 -62q-56 -67 -108.5 -94t-126.5 -27q-52 0 -96 13t-107 39q-57 25 -110 41q-51 -93 -153 -93q-56 0 -89.5 25.5t-33.5 65.5q0 49 47 81.5t125 32.5h13l18 291q6 100 36 165t83 111q46 40 105 60.5t125 20.5q108 0 166 -56t58 -146
q0 -61 -22 -98.5t-61 -37.5q-28 0 -44 13.5t-16 38.5q0 9 4 33q6 28 6 50q0 42 -24.5 66.5t-74.5 24.5q-88 0 -136 -57.5t-61 -180.5l-23 -227q-5 -48 -13 -83q64 -11 160 -35q56 -14 86 -20t53 -6q58 0 99.5 19.5t78.5 62.5q12 14 27 14q13 0 20.5 -12zM264 -265
q-13 11 -12 30l3 102q1 31 18.5 46t41.5 15q25 0 43.5 -14.5t18.5 -41.5q0 -14 -6 -30l-29 -85q-5 -16 -18.5 -24.5t-28.5 -8.5q-18 0 -31 11z" />
    <glyph glyph-name="uni013C" unicode="&#x13c;" horiz-adv-x="326" 
d="M447.5 211q7.5 -12 7.5 -33q0 -40 -19 -62q-43 -53 -93.5 -87t-114.5 -34q-88 0 -130.5 80t-42.5 207q0 122 31.5 278t93 268t146.5 112q48 0 75.5 -44.5t27.5 -127.5q0 -119 -66 -276t-179 -311q7 -41 23 -58.5t42 -17.5q41 0 72 23.5t79 80.5q12 14 27 14
q13 0 20.5 -12zM252 758q-29 -83 -51 -206t-24 -236q71 117 113 234.5t42 214.5q0 76 -28 76q-23 0 -52 -83zM118 -297.5q-11 10.5 -10 30.5l6 132q1 33 20.5 48t45.5 15q24 0 39.5 -14.5t15.5 -41.5q0 -18 -5 -32l-39 -115q-11 -33 -45 -33q-17 0 -28 10.5z" />
    <glyph glyph-name="Lcaron" unicode="&#x13d;" horiz-adv-x="673" 
d="M794.5 211q7.5 -12 7.5 -33q0 -39 -19 -62q-56 -67 -108.5 -94t-126.5 -27q-52 0 -96 13t-107 39q-57 25 -110 41q-51 -93 -153 -93q-56 0 -89.5 25.5t-33.5 65.5q0 49 47 81.5t125 32.5h13l18 291q6 100 36 165t83 111q46 40 105 60.5t125 20.5q108 0 166 -56t58 -146
q0 -61 -22 -98.5t-61 -37.5q-28 0 -44 13.5t-16 38.5q0 9 4 33q6 28 6 50q0 42 -24.5 66.5t-74.5 24.5q-88 0 -136 -57.5t-61 -180.5l-23 -227q-5 -48 -13 -83q64 -11 160 -35q56 -14 86 -20t53 -6q58 0 99.5 19.5t78.5 62.5q12 14 27 14q13 0 20.5 -12zM776 619.5
q-11 10.5 -10 30.5l6 132q1 33 20.5 48t45.5 15q24 0 39.5 -14.5t15.5 -41.5q0 -18 -5 -32l-39 -115q-11 -33 -45 -33q-17 0 -28 10.5z" />
    <glyph glyph-name="lcaron" unicode="&#x13e;" horiz-adv-x="237" 
d="M44 155q0 27 3 55q11 105 40 256.5t60 289.5q9 40 28.5 56t51.5 16q30 0 44.5 -10t14.5 -32q0 -6 -4 -26l-7 -30q-46 -200 -67 -294.5t-33 -172.5q-10 -63 -10 -115q0 -43 27 -43q19 0 46 24.5t73 79.5q12 14 27 14q13 0 20.5 -12t7.5 -33q0 -40 -19 -62
q-44 -54 -88 -87.5t-96 -33.5q-119 0 -119 160zM319 709.5q-11 10.5 -10 30.5l6 132q1 33 20.5 48t45.5 15q24 0 39.5 -14.5t15.5 -41.5q0 -18 -5 -32l-39 -115q-11 -33 -45 -33q-17 0 -28 10.5z" />
    <glyph glyph-name="Ldot" unicode="&#x13f;" horiz-adv-x="673" 
d="M794.5 211q7.5 -12 7.5 -33q0 -39 -19 -62q-56 -67 -108.5 -94t-126.5 -27q-52 0 -96 13t-107 39q-57 25 -110 41q-51 -93 -153 -93q-56 0 -89.5 25.5t-33.5 65.5q0 49 47 81.5t125 32.5h13l18 291q6 100 36 165t83 111q46 40 105 60.5t125 20.5q108 0 166 -56t58 -146
q0 -61 -22 -98.5t-61 -37.5q-28 0 -44 13.5t-16 38.5q0 9 4 33q6 28 6 50q0 42 -24.5 66.5t-74.5 24.5q-88 0 -136 -57.5t-61 -180.5l-23 -227q-5 -48 -13 -83q64 -11 160 -35q56 -14 86 -20t53 -6q58 0 99.5 19.5t78.5 62.5q12 14 27 14q13 0 20.5 -12zM412 330.5
q-21 19.5 -21 54.5t27.5 58.5t68.5 23.5q37 0 60 -18t23 -51q0 -40 -26 -63.5t-69 -23.5q-42 0 -63 19.5z" />
    <glyph glyph-name="ldot" unicode="&#x140;" horiz-adv-x="363" 
d="M100 46.5q-51 51.5 -51 159.5q0 26 3 54q10 92 49 283.5t74 319.5q11 40 30 56t50 16q30 0 44.5 -10t14.5 -32q0 -13 -4 -26q-36 -137 -76 -316t-50 -238q-7 -43 -7 -83q0 -62 21.5 -93.5t67.5 -31.5q49 0 87.5 25t83.5 79q12 14 27 14q13 0 20.5 -12t7.5 -33
q0 -40 -19 -62q-43 -51 -100.5 -86t-127.5 -35q-94 0 -145 51.5zM260 401q-20 20 -20 54q0 35 26.5 58.5t63.5 23.5q32 0 53.5 -18t21.5 -51q0 -39 -25 -63t-62 -24q-38 0 -58 20z" />
    <glyph glyph-name="Lslash" unicode="&#x141;" horiz-adv-x="673" 
d="M249.5 857.5q-11.5 12.5 -11.5 29.5q0 24 15 41t61 36q49 20 117.5 34.5t142.5 14.5q96 0 142 -21t46 -50q0 -22 -14.5 -34t-38.5 -12q-7 0 -37 4q-5 1 -33 4.5t-63 3.5q-73 0 -124.5 -12.5t-110.5 -33.5q-43 -17 -59 -17q-21 0 -32.5 12.5zM794.5 211q7.5 -12 7.5 -33
q0 -39 -19 -62q-56 -67 -108.5 -94t-126.5 -27q-52 0 -96 13t-107 39q-57 25 -110 41q-51 -93 -153 -93q-56 0 -89.5 25.5t-33.5 65.5q0 49 47 81.5t125 32.5h13l18 291q6 86 36.5 148.5t82.5 107.5q46 40 105 60.5t125 20.5q108 0 166 -56t58 -146q0 -61 -22 -98.5
t-61 -37.5q-28 0 -44 13.5t-16 38.5q0 9 4 33q6 28 6 50q0 42 -24.5 66.5t-74.5 24.5q-175 0 -197 -218l-23 -227q-5 -48 -13 -83q64 -11 160 -35q56 -14 86 -20t53 -6q58 0 99.5 19.5t78.5 62.5q12 14 27 14q13 0 20.5 -12z" />
    <glyph glyph-name="lslash" unicode="&#x142;" horiz-adv-x="326" 
d="M556 992q38 -21 38 -50q0 -22 -14.5 -34t-38.5 -12q-14 0 -37 5q-42 7 -66 7q-66 0 -111 -12t-89 -32q-5 -2 -19 -8t-25 -8.5t-20 -2.5q-21 0 -32.5 12.5t-11.5 29.5q0 22 15 38.5t50 33.5q49 24 113.5 39t127.5 15q82 0 120 -21zM447.5 211q7.5 -12 7.5 -33
q0 -40 -19 -62q-43 -53 -93.5 -87t-114.5 -34q-88 0 -130.5 81.5t-42.5 215.5q0 113 31.5 244.5t92.5 223t144 91.5q49 0 77.5 -40.5t28.5 -122.5q0 -107 -67 -239.5t-178 -265.5q7 -42 23 -60t42 -18q41 0 72 23.5t79 80.5q12 14 27 14q13 0 20.5 -12zM250.5 688.5
q-29.5 -66.5 -51 -170.5t-22.5 -210q155 214 155 377q0 70 -28 70q-24 0 -53.5 -66.5z" />
    <glyph glyph-name="Nacute" unicode="&#x143;" horiz-adv-x="884" 
d="M179 11.5q-16 16.5 -16 62.5q0 31 6 75t21 133q2 12 16 97.5t25 179.5q10 80 10 120q0 45 -33 45q-25 0 -62.5 -26.5t-80.5 -84.5q-14 -19 -31 -19q-14 0 -24.5 13.5t-10.5 30.5t6 32.5t22 37.5q49 67 109 103.5t126 36.5q55 0 82.5 -34t27.5 -99q0 -58 -16 -168
q50 148 127 224.5t181 76.5q82 0 123.5 -46.5t41.5 -124.5q0 -44 -13 -107l-61 -286q-10 -50 -10 -86q0 -42 19.5 -63t54.5 -21q33 0 64.5 22t74.5 73q12 14 27 14q13 0 20.5 -12t7.5 -33q0 -39 -19 -62q-52 -63 -103 -92t-107 -29q-85 0 -133 50.5t-48 135.5q0 33 5.5 72
t18.5 99l40 183q2 9 7 32t8 43.5t3 40.5q0 32 -18 51t-51 19q-60 0 -120 -64t-111 -206.5t-80 -364.5q-7 -51 -20.5 -71t-52.5 -20q-37 0 -53 16.5zM532 922.5q-11 10.5 -11 25.5q0 20 19 36l172 147q20 17 44 17q26 0 45 -18.5t19 -44.5q0 -43 -53 -71l-187 -97
q-9 -5 -21 -5q-16 0 -27 10.5z" />
    <glyph glyph-name="nacute" unicode="&#x144;" horiz-adv-x="496" 
d="M65.5 35q-15.5 40 -15.5 128q0 130 37 247q9 29 29.5 42.5t57.5 13.5q20 0 28 -5t8 -19q0 -16 -15 -72q-10 -40 -16 -70t-10 -74q33 86 74 140t80.5 77t72.5 23q65 0 65 -65q0 -39 -22 -141q-19 -87 -19 -115q0 -40 29 -40q20 0 47.5 24.5t73.5 79.5q12 14 27 14
q13 0 20.5 -12t7.5 -33q0 -40 -19 -62q-43 -53 -92.5 -87t-112.5 -34q-51 0 -77 29.5t-26 85.5q0 28 14 100q13 63 13 87q0 16 -11 16q-13 0 -36.5 -33.5t-48 -88.5t-39.5 -116q-11 -47 -25.5 -63.5t-45.5 -16.5q-38 0 -53.5 40zM291.5 542.5q-10.5 10.5 -10.5 25.5
q0 7 5 19l93 208q9 20 23.5 29.5t32.5 9.5q25 0 44.5 -18t19.5 -45q0 -28 -22 -56l-129 -166q-13 -17 -32 -17q-14 0 -24.5 10.5z" />
    <glyph glyph-name="uni0145" unicode="&#x145;" horiz-adv-x="884" 
d="M179 11.5q-16 16.5 -16 62.5q0 31 6 75t21 133q2 12 16 97.5t25 179.5q10 80 10 120q0 45 -33 45q-25 0 -62.5 -26.5t-80.5 -84.5q-14 -19 -31 -19q-14 0 -24.5 13.5t-10.5 30.5t6 32.5t22 37.5q49 67 109 103.5t126 36.5q55 0 82.5 -34t27.5 -99q0 -58 -16 -168
q50 148 127 224.5t181 76.5q82 0 123.5 -46.5t41.5 -124.5q0 -44 -13 -107l-61 -286q-10 -50 -10 -86q0 -42 19.5 -63t54.5 -21q33 0 64.5 22t74.5 73q12 14 27 14q13 0 20.5 -12t7.5 -33q0 -39 -19 -62q-52 -63 -103 -92t-107 -29q-85 0 -133 50.5t-48 135.5q0 33 5.5 72
t18.5 99l40 183q2 9 7 32t8 43.5t3 40.5q0 32 -18 51t-51 19q-60 0 -120 -64t-111 -206.5t-80 -364.5q-7 -51 -20.5 -71t-52.5 -20q-37 0 -53 16.5zM372 -265q-13 11 -12 30l3 102q1 31 18.5 46t41.5 15q25 0 43.5 -14.5t18.5 -41.5q0 -14 -6 -30l-29 -85
q-5 -16 -18.5 -24.5t-28.5 -8.5q-18 0 -31 11z" />
    <glyph glyph-name="uni0146" unicode="&#x146;" horiz-adv-x="496" 
d="M65.5 35q-15.5 40 -15.5 128q0 130 37 247q9 29 29.5 42.5t57.5 13.5q20 0 28 -5t8 -19q0 -16 -15 -72q-10 -40 -16 -70t-10 -74q33 86 74 140t80.5 77t72.5 23q65 0 65 -65q0 -39 -22 -141q-19 -87 -19 -115q0 -40 29 -40q20 0 47.5 24.5t73.5 79.5q12 14 27 14
q13 0 20.5 -12t7.5 -33q0 -40 -19 -62q-43 -53 -92.5 -87t-112.5 -34q-51 0 -77 29.5t-26 85.5q0 28 14 100q13 63 13 87q0 16 -11 16q-13 0 -36.5 -33.5t-48 -88.5t-39.5 -116q-11 -47 -25.5 -63.5t-45.5 -16.5q-38 0 -53.5 40zM173 -297.5q-11 10.5 -10 30.5l6 132
q1 33 20.5 48t45.5 15q24 0 39.5 -14.5t15.5 -41.5q0 -18 -5 -32l-39 -115q-11 -33 -45 -33q-17 0 -28 10.5z" />
    <glyph glyph-name="Ncaron" unicode="&#x147;" horiz-adv-x="884" 
d="M179 11.5q-16 16.5 -16 62.5q0 31 6 75t21 133q2 12 16 97.5t25 179.5q10 80 10 120q0 45 -33 45q-25 0 -62.5 -26.5t-80.5 -84.5q-14 -19 -31 -19q-14 0 -24.5 13.5t-10.5 30.5t6 32.5t22 37.5q49 67 109 103.5t126 36.5q55 0 82.5 -34t27.5 -99q0 -58 -16 -168
q50 148 127 224.5t181 76.5q82 0 123.5 -46.5t41.5 -124.5q0 -44 -13 -107l-61 -286q-10 -50 -10 -86q0 -42 19.5 -63t54.5 -21q33 0 64.5 22t74.5 73q12 14 27 14q13 0 20.5 -12t7.5 -33q0 -39 -19 -62q-52 -63 -103 -92t-107 -29q-85 0 -133 50.5t-48 135.5q0 33 5.5 72
t18.5 99l40 183q2 9 7 32t8 43.5t3 40.5q0 32 -18 51t-51 19q-60 0 -120 -64t-111 -206.5t-80 -364.5q-7 -51 -20.5 -71t-52.5 -20q-37 0 -53 16.5zM514 928q-18 16 -37 53l-50 99q-10 20 -10 37q0 21 14 32.5t35 11.5t34 -8t20 -28l48 -126l78 123q14 22 28 30.5t37 8.5
q19 0 31.5 -9.5t12.5 -26.5q0 -19 -17 -42l-84 -115q-21 -29 -43 -42.5t-51 -13.5q-28 0 -46 16z" />
    <glyph glyph-name="ncaron" unicode="&#x148;" horiz-adv-x="496" 
d="M65.5 35q-15.5 40 -15.5 128q0 130 37 247q9 29 29.5 42.5t57.5 13.5q20 0 28 -5t8 -19q0 -16 -15 -72q-10 -40 -16 -70t-10 -74q33 86 74 140t80.5 77t72.5 23q65 0 65 -65q0 -39 -22 -141q-19 -87 -19 -115q0 -40 29 -40q20 0 47.5 24.5t73.5 79.5q12 14 27 14
q13 0 20.5 -12t7.5 -33q0 -40 -19 -62q-43 -53 -92.5 -87t-112.5 -34q-51 0 -77 29.5t-26 85.5q0 28 14 100q13 63 13 87q0 16 -11 16q-13 0 -36.5 -33.5t-48 -88.5t-39.5 -116q-11 -47 -25.5 -63.5t-45.5 -16.5q-38 0 -53.5 40zM263 549q-17 18 -26 57l-44 180q-3 12 -3 22
q0 25 16.5 38.5t39.5 13.5t37 -11.5t18 -42.5l23 -177l87 177q15 31 32 42t38 11t33.5 -9.5t12.5 -27.5q0 -17 -11 -36l-112 -193q-18 -31 -40.5 -46.5t-53.5 -15.5q-30 0 -47 18z" />
    <glyph glyph-name="napostrophe" unicode="&#x149;" horiz-adv-x="496" 
d="M6 542.5q-11 10.5 -10 30.5l6 132q1 33 20.5 48t45.5 15q24 0 39.5 -14.5t15.5 -41.5q0 -18 -5 -32l-39 -115q-11 -33 -45 -33q-17 0 -28 10.5zM65.5 35q-15.5 40 -15.5 128q0 130 37 247q9 29 29.5 42.5t57.5 13.5q20 0 28 -5t8 -19q0 -16 -15 -72q-10 -40 -16 -70
t-10 -74q33 86 74 140t80.5 77t72.5 23q65 0 65 -65q0 -39 -22 -141q-19 -87 -19 -115q0 -40 29 -40q20 0 47.5 24.5t73.5 79.5q12 14 27 14q13 0 20.5 -12t7.5 -33q0 -40 -19 -62q-43 -53 -92.5 -87t-112.5 -34q-51 0 -77 29.5t-26 85.5q0 28 14 100q13 63 13 87
q0 16 -11 16q-13 0 -36.5 -33.5t-48 -88.5t-39.5 -116q-11 -47 -25.5 -63.5t-45.5 -16.5q-38 0 -53.5 40z" />
    <glyph glyph-name="Eng" unicode="&#x14a;" horiz-adv-x="884" 
d="M1005.5 211q7.5 -12 7.5 -33q0 -39 -19 -62q-47 -57 -93 -89t-100 -32q-61 0 -114 30q-52 -186 -123 -279t-179 -93q-60 0 -115 26t-89 75q-13 19 -13 38q0 24 17.5 42t40.5 18q29 0 49 -28q52 -72 121 -72q37 0 64.5 27t55 106.5t60.5 234.5l63 295q14 57 11 48
q17 80 24 119t7 70t-16.5 50t-48.5 19q-60 0 -120 -64t-111 -206.5t-80 -364.5q-7 -51 -20.5 -71t-52.5 -20q-35 0 -52 21t-17 68q0 26 7.5 77.5t17.5 111.5q28 160 43 286q10 80 10 120q0 45 -33 45q-25 0 -62.5 -26.5t-80.5 -84.5q-14 -19 -31 -19q-14 0 -24.5 13.5
t-10.5 30.5t6 32.5t22 37.5q49 67 109 103.5t126 36.5q55 0 82.5 -34t27.5 -99q0 -58 -16 -168q50 148 127 224.5t181 76.5q81 0 120.5 -45.5t39.5 -120.5q0 -55 -11.5 -118.5t-28.5 -133.5l-66 -284q57 -30 106 -30q32 0 61.5 21t72.5 72q12 14 27 14q13 0 20.5 -12z" />
    <glyph glyph-name="eng" unicode="&#x14b;" horiz-adv-x="495" 
d="M616.5 211q7.5 -12 7.5 -33q0 -40 -19 -62q-43 -53 -92.5 -87t-112.5 -34q-8 0 -22 2q-45 -162 -101 -241t-129 -79q-53 0 -83 35.5t-35 93.5q-2 25 16.5 39.5t41.5 14.5q14 0 22.5 -5t9.5 -15q7 -77 34 -77q36 0 75.5 101t81.5 338l5 28q9 47 9 67q0 16 -11 16
q-13 0 -37 -33.5t-48 -88.5t-39 -116q-11 -47 -25.5 -63.5t-45.5 -16.5q-38 0 -53.5 40t-15.5 128q0 130 37 247q9 29 29.5 42.5t57.5 13.5q20 0 28 -5t8 -19q0 -16 -15 -72q-10 -40 -16 -70t-10 -74q33 86 74 140t80.5 77t72.5 23q65 0 65 -65q0 -39 -30 -174l-7 -35
l-18 -84q14 -3 23 -3q33 0 63 24t77 80q12 14 27 14q13 0 20.5 -12z" />
    <glyph glyph-name="Omacron" unicode="&#x14c;" horiz-adv-x="816" 
d="M219.5 35q-71.5 40 -113.5 117.5t-42 185.5q0 152 55.5 268t151 179t211.5 63q89 0 160.5 -40t113.5 -117.5t42 -185.5q0 -152 -55.5 -268t-151 -179t-211.5 -63q-89 0 -160.5 40zM527.5 161q59.5 48 91.5 133.5t32 193.5q0 119 -50 180.5t-129 61.5q-77 0 -136 -47.5
t-92 -133t-33 -194.5q0 -119 50 -180.5t129 -61.5q78 0 137.5 48zM331 951q0 25 14 39.5t39 14.5h223q22 0 33.5 -10.5t11.5 -30.5q0 -27 -14 -42t-39 -15h-223q-45 0 -45 44z" />
    <glyph glyph-name="omacron" unicode="&#x14d;" horiz-adv-x="451" 
d="M578 294q7 -13 7 -33q0 -48 -29 -57q-60 -21 -132 -24q-19 -84 -75 -134.5t-127 -50.5q-60 0 -102.5 29t-64.5 77t-22 104q0 76 29 135.5t80 93t113 33.5q76 0 122.5 -52.5t54.5 -129.5q47 3 112 20q8 2 14 2q13 0 20 -13zM285.5 127q23.5 26 31.5 75q-31 21 -47.5 55
t-16.5 72q0 16 3 32h-5q-40 0 -66.5 -38.5t-26.5 -108.5q0 -55 21.5 -84t50.5 -29q32 0 55.5 26zM115.5 543q-11.5 11 -11.5 31q0 24 14 38t39 14h223q22 0 33.5 -10.5t11.5 -28.5q0 -26 -14 -40.5t-39 -14.5h-223q-22 0 -33.5 11z" />
    <glyph glyph-name="Obreve" unicode="&#x14e;" horiz-adv-x="816" 
d="M219.5 35q-71.5 40 -113.5 117.5t-42 185.5q0 152 55.5 268t151 179t211.5 63q89 0 160.5 -40t113.5 -117.5t42 -185.5q0 -152 -55.5 -268t-151 -179t-211.5 -63q-89 0 -160.5 40zM527.5 161q59.5 48 91.5 133.5t32 193.5q0 119 -50 180.5t-129 61.5q-77 0 -136 -47.5
t-92 -133t-33 -194.5q0 -119 50 -180.5t129 -61.5q78 0 137.5 48zM388.5 927.5q-45.5 20.5 -69 53t-23.5 66.5q0 21 17 33t42 12q20 0 31.5 -7.5t19.5 -25.5q15 -32 37 -44t61 -12t63 14.5t44 44.5t57 30q19 0 31 -10t12 -28q0 -32 -26 -66.5t-75 -57.5t-114 -23
q-62 0 -107.5 20.5z" />
    <glyph glyph-name="obreve" unicode="&#x14f;" horiz-adv-x="451" 
d="M578 294q7 -13 7 -33q0 -48 -29 -57q-60 -21 -132 -24q-19 -84 -75 -134.5t-127 -50.5q-60 0 -102.5 29t-64.5 77t-22 104q0 76 29 135.5t80 93t113 33.5q76 0 122.5 -52.5t54.5 -129.5q47 3 112 20q8 2 14 2q13 0 20 -13zM285.5 127q23.5 26 31.5 75q-31 21 -47.5 55
t-16.5 72q0 16 3 32h-5q-40 0 -66.5 -38.5t-26.5 -108.5q0 -55 21.5 -84t50.5 -29q32 0 55.5 26zM162 557q-45 25 -68 64t-23 80q0 25 16 40t41 15q40 0 51 -40q12 -42 37 -65t61 -23q40 0 63.5 24.5t43.5 66.5q18 37 53 37q22 0 33.5 -12.5t11.5 -34.5q0 -39 -25.5 -80
t-74 -69t-113.5 -28q-62 0 -107 25z" />
    <glyph glyph-name="Ohungarumlaut" unicode="&#x150;" horiz-adv-x="816" 
d="M219.5 35q-71.5 40 -113.5 117.5t-42 185.5q0 152 55.5 268t151 179t211.5 63q89 0 160.5 -40t113.5 -117.5t42 -185.5q0 -152 -55.5 -268t-151 -179t-211.5 -63q-89 0 -160.5 40zM527.5 161q59.5 48 91.5 133.5t32 193.5q0 119 -50 180.5t-129 61.5q-77 0 -136 -47.5
t-92 -133t-33 -194.5q0 -119 50 -180.5t129 -61.5q78 0 137.5 48zM375 917.5q-12 10.5 -12 27.5q0 4 2 14l41 142q6 21 20.5 31.5t32.5 10.5q24 0 43 -17t19 -44q0 -23 -16 -49l-64 -104q-14 -22 -38 -22q-16 0 -28 10.5zM556 917.5q-12 10.5 -12 27.5q0 4 2 14l41 142
q6 21 20.5 31.5t32.5 10.5q24 0 43 -17t19 -44q0 -23 -16 -49l-64 -104q-14 -22 -38 -22q-16 0 -28 10.5z" />
    <glyph glyph-name="ohungarumlaut" unicode="&#x151;" horiz-adv-x="451" 
d="M578 294q7 -13 7 -33q0 -48 -29 -57q-60 -21 -132 -24q-19 -84 -75 -134.5t-127 -50.5q-60 0 -102.5 29t-64.5 77t-22 104q0 76 29 135.5t80 93t113 33.5q76 0 122.5 -52.5t54.5 -129.5q47 3 112 20q8 2 14 2q13 0 20 -13zM285.5 127q23.5 26 31.5 75q-31 21 -47.5 55
t-16.5 72q0 16 3 32h-5q-40 0 -66.5 -38.5t-26.5 -108.5q0 -55 21.5 -84t50.5 -29q32 0 55.5 26zM148.5 541.5q-10.5 10.5 -10.5 26.5q0 7 3 16l64 209q6 21 21.5 32t34.5 11q26 0 46 -17.5t20 -45.5q0 -23 -15 -48l-103 -172q-6 -11 -15.5 -16.5t-19.5 -5.5
q-15 0 -25.5 10.5zM329.5 541.5q-10.5 10.5 -10.5 26.5q0 7 3 16l64 209q6 21 21.5 32t34.5 11q26 0 46 -17.5t20 -45.5q0 -23 -15 -48l-103 -172q-6 -11 -15.5 -16.5t-19.5 -5.5q-15 0 -25.5 10.5z" />
    <glyph glyph-name="OE" unicode="&#x152;" horiz-adv-x="1124" 
d="M1220 187q14 0 22 -11.5t8 -29.5q0 -23 -9.5 -41.5t-32.5 -35.5q-44 -32 -118 -53t-142 -21q-112 0 -181 40t-98 109q-54 -71 -128.5 -110t-160.5 -39q-89 0 -160.5 40t-113.5 117.5t-42 185.5q0 152 55.5 268t151 179t211.5 63q83 0 148.5 -36t104.5 -105l5 20
q15 55 49.5 83t85.5 30l52 3q126 6 198 6q36 0 50 -12.5t14 -41.5q0 -31 -18 -53t-54 -22q-67 0 -137.5 -3t-102.5 -7q-24 -72 -58 -227q46 2 66 2q107 5 181 5q30 0 41.5 -12.5t11.5 -36.5q0 -31 -17.5 -51.5t-48.5 -21.5l-113 -3q-52 -2 -145 -4q-11 -49 -11 -87
q0 -159 187 -159q53 0 108 16.5t121 50.5q9 5 20 5zM527.5 161q59.5 48 91.5 133.5t32 193.5q0 119 -50 180.5t-129 61.5q-76 0 -135.5 -48.5t-92.5 -133.5t-33 -193q0 -119 50 -180.5t129 -61.5q78 0 137.5 48z" />
    <glyph glyph-name="oe" unicode="&#x153;" horiz-adv-x="668" 
d="M789.5 211q7.5 -12 7.5 -33q0 -40 -19 -62q-37 -45 -104.5 -83t-144.5 -38q-57 0 -100 19t-71 53q-28 -34 -65.5 -53t-78.5 -19q-57 0 -98 29.5t-62 77.5t-21 103q0 76 29 135.5t78.5 93t108.5 33.5q84 0 134 -72q29 34 67.5 52.5t80.5 18.5q60 0 95.5 -34.5t35.5 -93.5
q0 -69 -49.5 -118.5t-167.5 -78.5q25 -46 95 -46q45 0 102.5 31.5t99.5 82.5q12 14 27 14q13 0 20.5 -12zM454.5 325q-25.5 -43 -25.5 -104v-2q59 14 93 42t34 65q0 19 -10.5 30.5t-28.5 11.5q-37 0 -62.5 -43zM284.5 140q24.5 39 24.5 108q0 54 -20 83.5t-46 29.5
q-36 0 -60.5 -39t-24.5 -108q0 -56 17.5 -84.5t47.5 -28.5q37 0 61.5 39z" />
    <glyph glyph-name="Racute" unicode="&#x154;" horiz-adv-x="880" 
d="M1001.5 211q7.5 -12 7.5 -33q0 -39 -19 -62q-48 -58 -97 -89.5t-116 -31.5q-65 0 -110.5 35t-86.5 120q-33 68 -52 100.5t-37.5 46.5t-45.5 17q-4 -21 -23 -132q-8 -50 -10 -61q-10 -61 -40 -93.5t-91 -32.5q-67 0 -118.5 39.5t-79.5 110t-28 160.5q0 168 58.5 290
t164 186.5t243.5 64.5q96 0 161 -29t96.5 -80t31.5 -115q0 -56 -26.5 -109.5t-79.5 -94.5t-129 -61q48 -13 74 -42t52 -85q28 -60 55.5 -88t63.5 -28q32 0 61 21.5t73 73.5q12 14 27 14q13 0 20.5 -12zM307 315q-34 0 -46.5 16t-12.5 36q0 24 15.5 38t35.5 14h25
q16 98 30 169q13 65 84 65q57 0 57 -51q0 -11 -1 -17l-30 -166q54 3 98.5 26t71 64t26.5 93q0 63 -43 99t-126 36q-98 0 -171.5 -48.5t-114.5 -144t-41 -232.5q0 -64 13 -110t32 -69t36 -23q13 0 21.5 13t13.5 42zM493 922.5q-11 10.5 -11 25.5q0 20 19 36l172 147
q20 17 44 17q26 0 45 -18.5t19 -44.5q0 -43 -53 -71l-187 -97q-9 -5 -21 -5q-16 0 -27 10.5z" />
    <glyph glyph-name="racute" unicode="&#x155;" horiz-adv-x="455" 
d="M65.5 35q-15.5 40 -15.5 128q0 130 37 247q9 29 29.5 42.5t57.5 13.5q20 0 28 -5t8 -19q0 -16 -15 -72q-10 -40 -16 -70t-10 -74q33 86 74 140t80.5 77t72.5 23q65 0 65 -65q0 -13 -9 -63q-8 -40 -8 -50q0 -35 25 -35q28 0 72 44q13 13 27 13q13 0 20.5 -11.5t7.5 -30.5
q0 -37 -20 -58q-28 -29 -65.5 -49.5t-79.5 -20.5q-53 0 -80.5 27t-27.5 73q0 15 3 30q2 20 2 27q0 16 -11 16q-15 0 -39.5 -33.5t-48.5 -88.5t-39 -116q-11 -47 -25.5 -63.5t-45.5 -16.5q-38 0 -53.5 40zM269.5 542.5q-10.5 10.5 -10.5 25.5q0 7 5 19l93 208q9 20 23.5 29.5
t32.5 9.5q25 0 44.5 -18t19.5 -45q0 -28 -22 -56l-129 -166q-13 -17 -32 -17q-14 0 -24.5 10.5z" />
    <glyph glyph-name="uni0156" unicode="&#x156;" horiz-adv-x="880" 
d="M1001.5 211q7.5 -12 7.5 -33q0 -39 -19 -62q-48 -58 -97 -89.5t-116 -31.5q-65 0 -110.5 35t-86.5 120q-33 68 -52 100.5t-37.5 46.5t-45.5 17q-4 -21 -23 -132q-8 -50 -10 -61q-10 -61 -40 -93.5t-91 -32.5q-67 0 -118.5 39.5t-79.5 110t-28 160.5q0 168 58.5 290
t164 186.5t243.5 64.5q96 0 161 -29t96.5 -80t31.5 -115q0 -56 -26.5 -109.5t-79.5 -94.5t-129 -61q48 -13 74 -42t52 -85q28 -60 55.5 -88t63.5 -28q32 0 61 21.5t73 73.5q12 14 27 14q13 0 20.5 -12zM307 315q-34 0 -46.5 16t-12.5 36q0 24 15.5 38t35.5 14h25
q16 98 30 169q13 65 84 65q57 0 57 -51q0 -11 -1 -17l-30 -166q54 3 98.5 26t71 64t26.5 93q0 63 -43 99t-126 36q-98 0 -171.5 -48.5t-114.5 -144t-41 -232.5q0 -64 13 -110t32 -69t36 -23q13 0 21.5 13t13.5 42zM437 -265q-13 11 -12 30l3 102q1 31 18.5 46t41.5 15
q25 0 43.5 -14.5t18.5 -41.5q0 -14 -6 -30l-29 -85q-5 -16 -18.5 -24.5t-28.5 -8.5q-18 0 -31 11z" />
    <glyph glyph-name="uni0157" unicode="&#x157;" horiz-adv-x="455" 
d="M65.5 35q-15.5 40 -15.5 128q0 130 37 247q9 29 29.5 42.5t57.5 13.5q20 0 28 -5t8 -19q0 -16 -15 -72q-10 -40 -16 -70t-10 -74q33 86 74 140t80.5 77t72.5 23q65 0 65 -65q0 -13 -9 -63q-8 -40 -8 -50q0 -35 25 -35q28 0 72 44q13 13 27 13q13 0 20.5 -11.5t7.5 -30.5
q0 -37 -20 -58q-28 -29 -65.5 -49.5t-79.5 -20.5q-53 0 -80.5 27t-27.5 73q0 15 3 30q2 20 2 27q0 16 -11 16q-15 0 -39.5 -33.5t-48.5 -88.5t-39 -116q-11 -47 -25.5 -63.5t-45.5 -16.5q-38 0 -53.5 40zM49 -297.5q-11 10.5 -10 30.5l6 132q1 33 20.5 48t45.5 15
q24 0 39.5 -14.5t15.5 -41.5q0 -18 -5 -32l-39 -115q-11 -33 -45 -33q-17 0 -28 10.5z" />
    <glyph glyph-name="Rcaron" unicode="&#x158;" horiz-adv-x="880" 
d="M1001.5 211q7.5 -12 7.5 -33q0 -39 -19 -62q-48 -58 -97 -89.5t-116 -31.5q-65 0 -110.5 35t-86.5 120q-33 68 -52 100.5t-37.5 46.5t-45.5 17q-4 -21 -23 -132q-8 -50 -10 -61q-10 -61 -40 -93.5t-91 -32.5q-67 0 -118.5 39.5t-79.5 110t-28 160.5q0 168 58.5 290
t164 186.5t243.5 64.5q96 0 161 -29t96.5 -80t31.5 -115q0 -56 -26.5 -109.5t-79.5 -94.5t-129 -61q48 -13 74 -42t52 -85q28 -60 55.5 -88t63.5 -28q32 0 61 21.5t73 73.5q12 14 27 14q13 0 20.5 -12zM307 315q-34 0 -46.5 16t-12.5 36q0 24 15.5 38t35.5 14h25
q16 98 30 169q13 65 84 65q57 0 57 -51q0 -11 -1 -17l-30 -166q54 3 98.5 26t71 64t26.5 93q0 63 -43 99t-126 36q-98 0 -171.5 -48.5t-114.5 -144t-41 -232.5q0 -64 13 -110t32 -69t36 -23q13 0 21.5 13t13.5 42zM475 928q-18 16 -37 53l-50 99q-10 20 -10 37q0 21 14 32.5
t35 11.5t34 -8t20 -28l48 -126l78 123q14 22 28 30.5t37 8.5q19 0 31.5 -9.5t12.5 -26.5q0 -19 -17 -42l-84 -115q-21 -29 -43 -42.5t-51 -13.5q-28 0 -46 16z" />
    <glyph glyph-name="rcaron" unicode="&#x159;" horiz-adv-x="455" 
d="M65.5 35q-15.5 40 -15.5 128q0 130 37 247q9 29 29.5 42.5t57.5 13.5q20 0 28 -5t8 -19q0 -16 -15 -72q-10 -40 -16 -70t-10 -74q33 86 74 140t80.5 77t72.5 23q65 0 65 -65q0 -13 -9 -63q-8 -40 -8 -50q0 -35 25 -35q28 0 72 44q13 13 27 13q13 0 20.5 -11.5t7.5 -30.5
q0 -37 -20 -58q-28 -29 -65.5 -49.5t-79.5 -20.5q-53 0 -80.5 27t-27.5 73q0 15 3 30q2 20 2 27q0 16 -11 16q-15 0 -39.5 -33.5t-48.5 -88.5t-39 -116q-11 -47 -25.5 -63.5t-45.5 -16.5q-38 0 -53.5 40zM241 549q-17 18 -26 57l-44 180q-3 12 -3 22q0 25 16.5 38.5
t39.5 13.5t37 -11.5t18 -42.5l23 -177l87 177q15 31 32 42t38 11t33.5 -9.5t12.5 -27.5q0 -17 -11 -36l-112 -193q-18 -31 -40.5 -46.5t-53.5 -15.5q-30 0 -47 18z" />
    <glyph glyph-name="Sacute" unicode="&#x15a;" horiz-adv-x="693" 
d="M114 42.5q-80 50.5 -80 154.5q0 55 19 84t56 29q27 0 44 -14t17 -36q0 -20 -3 -35q0 -4 -1.5 -14t-1.5 -21q0 -45 45.5 -67t127.5 -22q85 0 133 30.5t48 85.5q0 34 -22 58.5t-55 41t-93 40.5q-77 30 -125.5 57t-83 73.5t-34.5 115.5q0 72 38.5 128t111 87t170.5 31
q73 0 134 -21.5t97.5 -65.5t36.5 -108q0 -63 -19 -95t-56 -32q-26 0 -43.5 16t-17.5 38q0 19 3 35q3 30 3 38q0 42 -41 64t-102 22q-86 0 -131.5 -31.5t-45.5 -88.5q0 -38 23.5 -65t58.5 -45t98 -43q76 -31 122 -56t78.5 -68t32.5 -106q0 -118 -89.5 -181.5t-239.5 -63.5
q-133 0 -213 50.5zM406 922.5q-11 10.5 -11 25.5q0 20 19 36l172 147q20 17 44 17q26 0 45 -18.5t19 -44.5q0 -43 -53 -71l-187 -97q-9 -5 -21 -5q-16 0 -27 10.5z" />
    <glyph glyph-name="sacute" unicode="&#x15b;" horiz-adv-x="427" 
d="M154.5 -3q-27.5 24 -27.5 54q0 26 19 45t56 19q13 0 30.5 -2.5t26.5 -3.5q-1 26 -11.5 49t-26.5 44.5t-30 37.5q-31 -59 -61.5 -98t-66.5 -74q-18 -18 -38 -18q-16 0 -26 11.5t-10 28.5q0 20 14 37l13 16q55 68 83 112q17 29 40 77.5t45 100.5q19 44 79 44q28 0 39 -5
t11 -16q0 -6 -4 -19t-11 -26q-18 -36 -18 -61q0 -15 10.5 -33t32.5 -45q32 -42 48.5 -71.5t16.5 -64.5q0 -10 -2 -28q49 19 115 101q12 14 27 14q13 0 20.5 -12t7.5 -33q0 -38 -19 -62q-50 -62 -95.5 -84.5t-112.5 -24.5q-40 -34 -95 -34q-52 0 -79.5 24zM241.5 542.5
q-10.5 10.5 -10.5 25.5q0 7 5 19l93 208q9 20 23.5 29.5t32.5 9.5q25 0 44.5 -18t19.5 -45q0 -28 -22 -56l-129 -166q-13 -17 -32 -17q-14 0 -24.5 10.5z" />
    <glyph glyph-name="Scircumflex" unicode="&#x15c;" horiz-adv-x="693" 
d="M114 42.5q-80 50.5 -80 154.5q0 55 19 84t56 29q27 0 44 -14t17 -36q0 -20 -3 -35q0 -4 -1.5 -14t-1.5 -21q0 -45 45.5 -67t127.5 -22q85 0 133 30.5t48 85.5q0 34 -22 58.5t-55 41t-93 40.5q-77 30 -125.5 57t-83 73.5t-34.5 115.5q0 72 38.5 128t111 87t170.5 31
q73 0 134 -21.5t97.5 -65.5t36.5 -108q0 -63 -19 -95t-56 -32q-26 0 -43.5 16t-17.5 38q0 19 3 35q3 30 3 38q0 42 -41 64t-102 22q-86 0 -131.5 -31.5t-45.5 -88.5q0 -38 23.5 -65t58.5 -45t98 -43q76 -31 122 -56t78.5 -68t32.5 -106q0 -118 -89.5 -181.5t-239.5 -63.5
q-133 0 -213 50.5zM457 1093l-80 -142q-11 -20 -29 -30t-37 -10q-21 0 -36 11.5t-15 30.5q0 17 13 37l92 137q37 56 105 56q31 0 49.5 -16t33.5 -53l47 -121q6 -15 6 -28q0 -24 -17 -38.5t-40 -14.5q-17 0 -31.5 9.5t-19.5 26.5z" />
    <glyph glyph-name="scircumflex" unicode="&#x15d;" horiz-adv-x="427" 
d="M154.5 -3q-27.5 24 -27.5 54q0 26 19 45t56 19q13 0 30.5 -2.5t26.5 -3.5q-1 26 -11.5 49t-26.5 44.5t-30 37.5q-31 -59 -61.5 -98t-66.5 -74q-18 -18 -38 -18q-16 0 -26 11.5t-10 28.5q0 20 14 37l13 16q55 68 83 112q17 29 40 77.5t45 100.5q19 44 79 44q28 0 39 -5
t11 -16q0 -6 -4 -19t-11 -26q-18 -36 -18 -61q0 -15 10.5 -33t32.5 -45q32 -42 48.5 -71.5t16.5 -64.5q0 -10 -2 -28q49 19 115 101q12 14 27 14q13 0 20.5 -12t7.5 -33q0 -38 -19 -62q-50 -62 -95.5 -84.5t-112.5 -24.5q-40 -34 -95 -34q-52 0 -79.5 24zM339 542.5
q-14 11.5 -18 42.5l-23 177l-87 -177q-15 -31 -32 -42t-38 -11t-33.5 9.5t-12.5 27.5q0 17 11 36l112 193q18 31 40.5 46.5t53.5 15.5q30 0 47 -18t26 -57l44 -180q3 -12 3 -22q0 -25 -16.5 -38.5t-39.5 -13.5t-37 11.5z" />
    <glyph glyph-name="Scedilla" unicode="&#x15e;" horiz-adv-x="693" 
d="M574.5 543q-17.5 16 -17.5 38q0 19 3 35q3 30 3 38q0 42 -41 64t-102 22q-86 0 -131.5 -31.5t-45.5 -88.5q0 -38 23.5 -65t58.5 -45t98 -43q76 -31 122 -56t78.5 -68t32.5 -106q0 -100 -66 -161.5t-181 -78.5q32 -30 32 -83q0 -75 -51.5 -121.5t-139.5 -46.5q-38 0 -62 5
q-20 4 -29.5 15t-9.5 32q0 24 10 35t30 11q8 0 13 -1q27 -4 53 -4q40 0 62.5 16.5t22.5 50.5q0 25 -21.5 39.5t-58.5 14.5q-26 0 -40 7t-14 24q0 6 1 9l1 4q-82 19 -128 67t-46 126q0 55 19 84t56 29q27 0 44 -14t17 -36q0 -20 -3 -35q0 -4 -1.5 -14t-1.5 -21
q0 -45 45.5 -67t127.5 -22q85 0 133 30.5t48 85.5q0 34 -22 58.5t-55 41t-93 40.5q-77 30 -125.5 57t-83 73.5t-34.5 115.5q0 72 38.5 128t111 87t170.5 31q73 0 134 -21.5t97.5 -65.5t36.5 -108q0 -63 -19 -95t-56 -32q-26 0 -43.5 16z" />
    <glyph glyph-name="scedilla" unicode="&#x15f;" horiz-adv-x="427" 
d="M548.5 211q7.5 -12 7.5 -33q0 -38 -19 -62q-50 -62 -95.5 -84.5t-112.5 -24.5l-15 -11q31 -31 31 -82q0 -47 -22.5 -84.5t-65 -58.5t-99.5 -21q-38 0 -62 5q-39 7 -39 44q0 45 40 45q8 0 13 -1q27 -4 53 -4q40 0 62.5 16.5t22.5 50.5q0 25 -21.5 39.5t-58.5 14.5
q-26 0 -40 7t-14 24q0 6 1 9q5 20 16 29q-4 9 -4 22q0 26 19 45t56 19q13 0 30.5 -2.5t26.5 -3.5q-1 26 -11.5 49t-26.5 44.5t-30 37.5q-31 -59 -61.5 -98t-66.5 -74q-18 -18 -38 -18q-16 0 -26 11.5t-10 28.5q0 20 14 37l13 16q55 68 83 112q17 29 40 77.5t45 100.5
q19 44 79 44q28 0 39 -5t11 -16q0 -6 -4 -19t-11 -26q-18 -36 -18 -61q0 -15 10.5 -33t32.5 -45q32 -42 48.5 -71.5t16.5 -64.5q0 -10 -2 -28q49 19 115 101q12 14 27 14q13 0 20.5 -12z" />
    <glyph glyph-name="Scaron" unicode="&#x160;" horiz-adv-x="693" 
d="M114 42.5q-80 50.5 -80 154.5q0 55 19 84t56 29q27 0 44 -14t17 -36q0 -20 -3 -35q0 -4 -1.5 -14t-1.5 -21q0 -45 45.5 -67t127.5 -22q85 0 133 30.5t48 85.5q0 34 -22 58.5t-55 41t-93 40.5q-77 30 -125.5 57t-83 73.5t-34.5 115.5q0 72 38.5 128t111 87t170.5 31
q73 0 134 -21.5t97.5 -65.5t36.5 -108q0 -63 -19 -95t-56 -32q-26 0 -43.5 16t-17.5 38q0 19 3 35q3 30 3 38q0 42 -41 64t-102 22q-86 0 -131.5 -31.5t-45.5 -88.5q0 -38 23.5 -65t58.5 -45t98 -43q76 -31 122 -56t78.5 -68t32.5 -106q0 -118 -89.5 -181.5t-239.5 -63.5
q-133 0 -213 50.5zM388 928q-18 16 -37 53l-50 99q-10 20 -10 37q0 21 14 32.5t35 11.5t34 -8t20 -28l48 -126l78 123q14 22 28 30.5t37 8.5q19 0 31.5 -9.5t12.5 -26.5q0 -19 -17 -42l-84 -115q-21 -29 -43 -42.5t-51 -13.5q-28 0 -46 16z" />
    <glyph glyph-name="scaron" unicode="&#x161;" horiz-adv-x="427" 
d="M154.5 -3q-27.5 24 -27.5 54q0 26 19 45t56 19q13 0 30.5 -2.5t26.5 -3.5q-1 26 -11.5 49t-26.5 44.5t-30 37.5q-31 -59 -61.5 -98t-66.5 -74q-18 -18 -38 -18q-16 0 -26 11.5t-10 28.5q0 20 14 37l13 16q55 68 83 112q17 29 40 77.5t45 100.5q19 44 79 44q28 0 39 -5
t11 -16q0 -6 -4 -19t-11 -26q-18 -36 -18 -61q0 -15 10.5 -33t32.5 -45q32 -42 48.5 -71.5t16.5 -64.5q0 -10 -2 -28q49 19 115 101q12 14 27 14q13 0 20.5 -12t7.5 -33q0 -38 -19 -62q-50 -62 -95.5 -84.5t-112.5 -24.5q-40 -34 -95 -34q-52 0 -79.5 24zM213 549
q-17 18 -26 57l-44 180q-3 12 -3 22q0 25 16.5 38.5t39.5 13.5t37 -11.5t18 -42.5l23 -177l87 177q15 31 32 42t38 11t33.5 -9.5t12.5 -27.5q0 -17 -11 -36l-112 -193q-18 -31 -40.5 -46.5t-53.5 -15.5q-30 0 -47 18z" />
    <glyph glyph-name="uni0162" unicode="&#x162;" horiz-adv-x="697" 
d="M887.5 809q15.5 -15 15.5 -35q0 -33 -18.5 -48t-58.5 -12q-90 7 -140.5 9.5t-132.5 3.5q-37 -184 -68 -370q-11 -68 -23 -157.5t-16 -144.5q-1 -24 -19 -40q55 -33 55 -101q0 -75 -51.5 -121.5t-139.5 -46.5q-38 0 -62 5q-20 4 -29.5 15t-9.5 32q0 24 10 35t30 11
q8 0 13 -1q27 -4 53 -4q40 0 62.5 16.5t22.5 50.5q0 25 -21.5 39.5t-58.5 14.5q-26 0 -40 7t-14 24q0 6 1 9q4 20 16 29.5t37 9.5q-1 4 -1 14q0 24 7.5 79.5t17.5 116.5q11 61 17 106q11 76 25 151t28 142q3 15 7 34.5t9 43.5q-98 -3 -154 -16t-79.5 -36.5t-23.5 -60.5
q0 -34 20 -65q4 -7 4 -15q0 -19 -22.5 -35.5t-46.5 -16.5q-17 0 -28 10q-20 17 -33 48.5t-13 71.5q0 85 55.5 136.5t169 75.5t291.5 24q110 0 175.5 -4t114.5 -13q31 -6 46.5 -21z" />
    <glyph glyph-name="uni0163" unicode="&#x163;" horiz-adv-x="393" 
d="M514.5 211q7.5 -12 7.5 -33q0 -40 -19 -62q-38 -46 -81.5 -78.5t-98.5 -40.5q31 -33 31 -83q0 -47 -22.5 -84.5t-65 -58.5t-99.5 -21q-38 0 -62 5q-39 7 -39 44q0 45 40 45q8 0 13 -1q27 -4 53 -4q40 0 62.5 16.5t22.5 50.5q0 25 -21.5 39.5t-58.5 14.5q-26 0 -40 7
t-14 24q0 6 1 9q6 34 41 38q-77 69 -77 244q0 44 3 89h-39q-30 0 -40.5 11t-10.5 35q0 56 45 56h57q17 110 52 201t84.5 145t106.5 54q42 0 66 -37t24 -93q0 -155 -130 -270h112q16 0 23 -7t7 -26q0 -69 -113 -69h-122q-2 -50 -2 -78q0 -104 24.5 -146t77.5 -42q43 0 76 26
t78 78q12 14 27 14q13 0 20.5 -12zM285.5 739.5q-18.5 -37.5 -35 -104t-27.5 -147.5q59 51 88.5 114.5t29.5 115.5q0 59 -22 59q-15 0 -33.5 -37.5z" />
    <glyph glyph-name="Tcaron" unicode="&#x164;" horiz-adv-x="697" 
d="M887.5 809q15.5 -15 15.5 -35q0 -33 -18.5 -48t-58.5 -12q-90 7 -140.5 9.5t-132.5 3.5q-37 -184 -68 -370q-11 -68 -23 -157.5t-16 -144.5q-2 -29 -24 -44.5t-53 -15.5q-33 0 -51 16t-18 42q0 24 7.5 79.5t17.5 116.5q11 61 17 106q11 76 25 151t28 142q3 15 7 34.5
t9 43.5q-98 -3 -154 -16t-79.5 -36.5t-23.5 -60.5q0 -34 20 -65q4 -7 4 -15q0 -19 -22.5 -35.5t-46.5 -16.5q-17 0 -28 10q-20 17 -33 48.5t-13 71.5q0 85 55.5 136.5t169 75.5t291.5 24q110 0 175.5 -4t114.5 -13q31 -6 46.5 -21zM466 928q-18 16 -37 53l-50 99
q-10 20 -10 37q0 21 14 32.5t35 11.5t34 -8t20 -28l48 -126l78 123q14 22 28 30.5t37 8.5q19 0 31.5 -9.5t12.5 -26.5q0 -19 -17 -42l-84 -115q-21 -29 -43 -42.5t-51 -13.5q-28 0 -46 16z" />
    <glyph glyph-name="tcaron" unicode="&#x165;" horiz-adv-x="343" 
d="M464.5 211q7.5 -12 7.5 -33q0 -40 -19 -62q-99 -121 -208 -121q-176 0 -176 206q0 28 3 59q6 61 18 131h-26q-30 0 -40.5 11t-10.5 35q0 56 45 56h51q20 97 45 200q9 40 28.5 56t51.5 16q30 0 44.5 -10t14.5 -32q0 -6 -4 -26q-32 -128 -48 -204h18h111q16 0 23 -7t7 -26
q0 -33 -25.5 -51t-67.5 -18h-88q-4 -16 -15 -78q-9 -57 -9 -100q0 -54 17 -81t54 -27q41 0 72 23.5t79 80.5q12 14 27 14q13 0 20.5 -12zM349 709.5q-11 10.5 -10 30.5l6 132q1 33 20.5 48t45.5 15q24 0 39.5 -14.5t15.5 -41.5q0 -18 -5 -32l-39 -115q-11 -33 -45 -33
q-17 0 -28 10.5z" />
    <glyph glyph-name="Tbar" unicode="&#x166;" horiz-adv-x="697" 
d="M887.5 809q15.5 -15 15.5 -35q0 -33 -18.5 -48t-58.5 -12q-90 7 -140.5 9.5t-132.5 3.5q-27 -134 -50 -265l100 1q32 0 46.5 -12t14.5 -32q0 -29 -18 -44.5t-67 -15.5h-94v-2q-11 -68 -23 -157.5t-16 -144.5q-2 -29 -24 -44.5t-53 -15.5q-33 0 -51 16t-18 42
q0 24 7.5 79.5t17.5 116.5q11 61 17 106v3q-17 0 -49 -2q-42 -2 -59 -2q-52 0 -52 40q0 31 19 47t65 16h93q22 121 39 202q8 44 13 67q-98 -3 -154 -16t-79.5 -36.5t-23.5 -60.5q0 -34 20 -65q4 -7 4 -15q0 -19 -22.5 -35.5t-46.5 -16.5q-17 0 -28 10q-20 17 -33 48.5
t-13 71.5q0 85 55.5 136.5t169 75.5t291.5 24q110 0 175.5 -4t114.5 -13q31 -6 46.5 -21z" />
    <glyph glyph-name="tbar" unicode="&#x167;" horiz-adv-x="343" 
d="M464.5 211q7.5 -12 7.5 -33q0 -40 -19 -62q-99 -121 -208 -121q-177 0 -177 206l1 26h-24q-31 0 -41.5 11t-10.5 33q0 23 10.5 37.5t34.5 14.5h42q7 49 10 68h-26q-30 0 -40.5 11t-10.5 35q0 56 45 56h51q20 97 45 200q9 40 28.5 56t51.5 16q30 0 44.5 -10t14.5 -32
q0 -6 -4 -26q-32 -128 -48 -204h18h111q16 0 23 -7t7 -26q0 -33 -25.5 -51t-67.5 -18h-88q-8 -35 -13 -68h33h91q16 0 23 -7.5t7 -26.5q0 -29 -25.5 -45.5t-66.5 -16.5h-73q-2 -61 14.5 -91.5t56.5 -30.5q41 0 72 23.5t79 80.5q12 14 27 14q13 0 20.5 -12z" />
    <glyph glyph-name="Utilde" unicode="&#x168;" horiz-adv-x="890" 
d="M205 41.5q-43 46.5 -43 124.5q0 44 13 107l62 286q2 8 9.5 44t7.5 78q0 24 -9.5 36t-25.5 12q-30 0 -70 -28.5t-84 -87.5q-14 -19 -31 -19q-14 0 -24.5 13.5t-10.5 30.5q0 31 28 70q102 140 239 140q61 0 95.5 -37t34.5 -109q0 -51 -7 -94t-24 -117l-41 -183
q-2 -9 -7 -32t-8 -43.5t-3 -40.5q0 -32 18 -51t51 -19q60 0 121.5 64t114 206.5t81.5 364.5q7 51 20.5 71t52.5 20q35 0 52 -21t17 -68q0 -27 -6.5 -71t-19.5 -123q-27 -153 -43 -281q-8 -58 -8 -86q0 -41 18.5 -62.5t49.5 -21.5q33 0 64.5 22t74.5 73q12 14 27 14
q13 0 20.5 -12t7.5 -33q0 -39 -19 -62q-52 -63 -103 -92t-107 -29q-83 0 -127 42.5t-44 110.5q0 38 16 148q-50 -147 -126.5 -224t-176.5 -77q-84 0 -127 46.5zM612 917.5q-14 5.5 -36 20.5l-107 74l-44 -63q-8 -11 -20.5 -16.5t-25.5 -5.5q-19 0 -32.5 10t-13.5 29
q0 27 37 81q44 64 97 64q17 0 30.5 -5t35.5 -21l107 -74l44 63q8 11 20.5 16.5t25.5 5.5q19 0 32.5 -10t13.5 -29q0 -13 -8 -29.5t-29 -51.5q-20 -33 -45 -48.5t-52 -15.5q-16 0 -30 5.5z" />
    <glyph glyph-name="utilde" unicode="&#x169;" horiz-adv-x="462" 
d="M76.5 36.5q-28.5 41.5 -28.5 103.5q0 75 10 137.5t33 132.5q10 30 28 43t57 13q22 0 30.5 -7t8.5 -21q0 -8 -11 -54q-10 -37 -16 -67q-20 -105 -20 -140q0 -21 5 -29.5t16 -8.5q15 0 37.5 30t48 91t49.5 150q8 30 24.5 43t49.5 13q23 0 32 -5.5t9 -20.5q0 -25 -25 -137
q-28 -128 -28 -158q0 -19 8 -29.5t21 -10.5q20 0 47.5 24.5t73.5 79.5q12 14 27 14q13 0 20.5 -12t7.5 -33q0 -40 -19 -62q-43 -53 -92.5 -87t-112.5 -34q-48 0 -70.5 37t-22.5 104q-17 -68 -51 -104.5t-73 -36.5q-45 0 -73.5 41.5zM366 537.5q-14 5.5 -36 20.5l-107 74
l-44 -63q-16 -22 -45 -22q-18 0 -30.5 10.5t-12.5 28.5q0 23 37 77q23 33 45 48.5t48 15.5q17 0 30.5 -5t35.5 -21l107 -74l44 63q16 22 45 22q18 0 30.5 -10.5t12.5 -28.5q0 -14 -9.5 -31.5t-27.5 -45.5q-23 -33 -45 -48.5t-48 -15.5q-16 0 -30 5.5z" />
    <glyph glyph-name="Umacron" unicode="&#x16a;" horiz-adv-x="890" 
d="M205 41.5q-43 46.5 -43 124.5q0 44 13 107l62 286q2 8 9.5 44t7.5 78q0 24 -9.5 36t-25.5 12q-30 0 -70 -28.5t-84 -87.5q-14 -19 -31 -19q-14 0 -24.5 13.5t-10.5 30.5q0 31 28 70q102 140 239 140q61 0 95.5 -37t34.5 -109q0 -51 -7 -94t-24 -117l-41 -183
q-2 -9 -7 -32t-8 -43.5t-3 -40.5q0 -32 18 -51t51 -19q60 0 121.5 64t114 206.5t81.5 364.5q7 51 20.5 71t52.5 20q35 0 52 -21t17 -68q0 -27 -6.5 -71t-19.5 -123q-27 -153 -43 -281q-8 -58 -8 -86q0 -41 18.5 -62.5t49.5 -21.5q33 0 64.5 22t74.5 73q12 14 27 14
q13 0 20.5 -12t7.5 -33q0 -39 -19 -62q-52 -63 -103 -92t-107 -29q-83 0 -127 42.5t-44 110.5q0 38 16 148q-50 -147 -126.5 -224t-176.5 -77q-84 0 -127 46.5zM382 956q0 25 14 39.5t39 14.5h223q22 0 33.5 -10.5t11.5 -30.5q0 -27 -14 -42t-39 -15h-223q-45 0 -45 44z" />
    <glyph glyph-name="umacron" unicode="&#x16b;" horiz-adv-x="462" 
d="M76.5 36.5q-28.5 41.5 -28.5 103.5q0 75 10 137.5t33 132.5q10 30 28 43t57 13q22 0 30.5 -7t8.5 -21q0 -8 -11 -54q-10 -37 -16 -67q-20 -105 -20 -140q0 -21 5 -29.5t16 -8.5q15 0 37.5 30t48 91t49.5 150q8 30 24.5 43t49.5 13q23 0 32 -5.5t9 -20.5q0 -25 -25 -137
q-28 -128 -28 -158q0 -19 8 -29.5t21 -10.5q20 0 47.5 24.5t73.5 79.5q12 14 27 14q13 0 20.5 -12t7.5 -33q0 -40 -19 -62q-43 -53 -92.5 -87t-112.5 -34q-48 0 -70.5 37t-22.5 104q-17 -68 -51 -104.5t-73 -36.5q-45 0 -73.5 41.5zM147.5 543q-11.5 11 -11.5 31q0 24 14 38
t39 14h223q22 0 33.5 -10.5t11.5 -28.5q0 -26 -14 -40.5t-39 -14.5h-223q-22 0 -33.5 11z" />
    <glyph glyph-name="Ubreve" unicode="&#x16c;" horiz-adv-x="890" 
d="M205 41.5q-43 46.5 -43 124.5q0 44 13 107l62 286q2 8 9.5 44t7.5 78q0 24 -9.5 36t-25.5 12q-30 0 -70 -28.5t-84 -87.5q-14 -19 -31 -19q-14 0 -24.5 13.5t-10.5 30.5q0 31 28 70q102 140 239 140q61 0 95.5 -37t34.5 -109q0 -51 -7 -94t-24 -117l-41 -183
q-2 -9 -7 -32t-8 -43.5t-3 -40.5q0 -32 18 -51t51 -19q60 0 121.5 64t114 206.5t81.5 364.5q7 51 20.5 71t52.5 20q35 0 52 -21t17 -68q0 -27 -6.5 -71t-19.5 -123q-27 -153 -43 -281q-8 -58 -8 -86q0 -41 18.5 -62.5t49.5 -21.5q33 0 64.5 22t74.5 73q12 14 27 14
q13 0 20.5 -12t7.5 -33q0 -39 -19 -62q-52 -63 -103 -92t-107 -29q-83 0 -127 42.5t-44 110.5q0 38 16 148q-50 -147 -126.5 -224t-176.5 -77q-84 0 -127 46.5zM439.5 932.5q-45.5 20.5 -69 53t-23.5 66.5q0 21 17 33t42 12q20 0 31.5 -7.5t19.5 -25.5q15 -32 37 -44t61 -12
t63 14.5t44 44.5t57 30q19 0 31 -10t12 -28q0 -32 -26 -66.5t-75 -57.5t-114 -23q-62 0 -107.5 20.5z" />
    <glyph glyph-name="ubreve" unicode="&#x16d;" horiz-adv-x="462" 
d="M76.5 36.5q-28.5 41.5 -28.5 103.5q0 75 10 137.5t33 132.5q10 30 28 43t57 13q22 0 30.5 -7t8.5 -21q0 -8 -11 -54q-10 -37 -16 -67q-20 -105 -20 -140q0 -21 5 -29.5t16 -8.5q15 0 37.5 30t48 91t49.5 150q8 30 24.5 43t49.5 13q23 0 32 -5.5t9 -20.5q0 -25 -25 -137
q-28 -128 -28 -158q0 -19 8 -29.5t21 -10.5q20 0 47.5 24.5t73.5 79.5q12 14 27 14q13 0 20.5 -12t7.5 -33q0 -40 -19 -62q-43 -53 -92.5 -87t-112.5 -34q-48 0 -70.5 37t-22.5 104q-17 -68 -51 -104.5t-73 -36.5q-45 0 -73.5 41.5zM194 557q-45 25 -68 64t-23 80
q0 25 16 40t41 15q40 0 51 -40q12 -42 37 -65t61 -23q40 0 63.5 24.5t43.5 66.5q18 37 53 37q22 0 33.5 -12.5t11.5 -34.5q0 -39 -25.5 -80t-74 -69t-113.5 -28q-62 0 -107 25z" />
    <glyph glyph-name="Uring" unicode="&#x16e;" horiz-adv-x="890" 
d="M205 41.5q-43 46.5 -43 124.5q0 44 13 107l62 286q2 8 9.5 44t7.5 78q0 24 -9.5 36t-25.5 12q-30 0 -70 -28.5t-84 -87.5q-14 -19 -31 -19q-14 0 -24.5 13.5t-10.5 30.5q0 31 28 70q102 140 239 140q61 0 95.5 -37t34.5 -109q0 -51 -7 -94t-24 -117l-41 -183
q-2 -9 -7 -32t-8 -43.5t-3 -40.5q0 -32 18 -51t51 -19q60 0 121.5 64t114 206.5t81.5 364.5q7 51 20.5 71t52.5 20q35 0 52 -21t17 -68q0 -27 -6.5 -71t-19.5 -123q-27 -153 -43 -281q-8 -58 -8 -86q0 -41 18.5 -62.5t49.5 -21.5q33 0 64.5 22t74.5 73q12 14 27 14
q13 0 20.5 -12t7.5 -33q0 -39 -19 -62q-52 -63 -103 -92t-107 -29q-83 0 -127 42.5t-44 110.5q0 38 16 148q-50 -147 -126.5 -224t-176.5 -77q-84 0 -127 46.5zM461 947.5q-38 35.5 -38 96.5q0 45 19.5 78.5t52 51.5t69.5 18q53 0 91 -35.5t38 -96.5q0 -45 -19.5 -78.5
t-52 -51.5t-69.5 -18q-53 0 -91 35.5zM590 1015q14 15 14 40q0 22 -13 35.5t-31 13.5q-20 0 -34 -15t-14 -40q0 -22 13 -35.5t31 -13.5q20 0 34 15z" />
    <glyph glyph-name="uring" unicode="&#x16f;" horiz-adv-x="462" 
d="M76.5 36.5q-28.5 41.5 -28.5 103.5q0 75 10 137.5t33 132.5q10 30 28 43t57 13q22 0 30.5 -7t8.5 -21q0 -8 -11 -54q-10 -37 -16 -67q-20 -105 -20 -140q0 -21 5 -29.5t16 -8.5q15 0 37.5 30t48 91t49.5 150q8 30 24.5 43t49.5 13q23 0 32 -5.5t9 -20.5q0 -25 -25 -137
q-28 -128 -28 -158q0 -19 8 -29.5t21 -10.5q20 0 47.5 24.5t73.5 79.5q12 14 27 14q13 0 20.5 -12t7.5 -33q0 -40 -19 -62q-43 -53 -92.5 -87t-112.5 -34q-48 0 -70.5 37t-22.5 104q-17 -68 -51 -104.5t-73 -36.5q-45 0 -73.5 41.5zM215 567.5q-38 35.5 -38 96.5
q0 45 19.5 78.5t52 51.5t69.5 18q53 0 91 -35.5t38 -96.5q0 -45 -19.5 -78.5t-52 -51.5t-69.5 -18q-53 0 -91 35.5zM344 635q14 15 14 40q0 22 -13 35.5t-31 13.5q-20 0 -34 -15t-14 -40q0 -22 13 -35.5t31 -13.5q20 0 34 15z" />
    <glyph glyph-name="Uhungarumlaut" unicode="&#x170;" horiz-adv-x="890" 
d="M205 41.5q-43 46.5 -43 124.5q0 44 13 107l62 286q2 8 9.5 44t7.5 78q0 24 -9.5 36t-25.5 12q-30 0 -70 -28.5t-84 -87.5q-14 -19 -31 -19q-14 0 -24.5 13.5t-10.5 30.5q0 31 28 70q102 140 239 140q61 0 95.5 -37t34.5 -109q0 -51 -7 -94t-24 -117l-41 -183
q-2 -9 -7 -32t-8 -43.5t-3 -40.5q0 -32 18 -51t51 -19q60 0 121.5 64t114 206.5t81.5 364.5q7 51 20.5 71t52.5 20q35 0 52 -21t17 -68q0 -27 -6.5 -71t-19.5 -123q-27 -153 -43 -281q-8 -58 -8 -86q0 -41 18.5 -62.5t49.5 -21.5q33 0 64.5 22t74.5 73q12 14 27 14
q13 0 20.5 -12t7.5 -33q0 -39 -19 -62q-52 -63 -103 -92t-107 -29q-83 0 -127 42.5t-44 110.5q0 38 16 148q-50 -147 -126.5 -224t-176.5 -77q-84 0 -127 46.5zM426 922.5q-12 10.5 -12 27.5q0 4 2 14l41 142q6 21 20.5 31.5t32.5 10.5q24 0 43 -17t19 -44q0 -23 -16 -49
l-64 -104q-14 -22 -38 -22q-16 0 -28 10.5zM607 922.5q-12 10.5 -12 27.5q0 4 2 14l41 142q6 21 20.5 31.5t32.5 10.5q24 0 43 -17t19 -44q0 -23 -16 -49l-64 -104q-14 -22 -38 -22q-16 0 -28 10.5z" />
    <glyph glyph-name="uhungarumlaut" unicode="&#x171;" horiz-adv-x="462" 
d="M76.5 36.5q-28.5 41.5 -28.5 103.5q0 75 10 137.5t33 132.5q10 30 28 43t57 13q22 0 30.5 -7t8.5 -21q0 -8 -11 -54q-10 -37 -16 -67q-20 -105 -20 -140q0 -21 5 -29.5t16 -8.5q15 0 37.5 30t48 91t49.5 150q8 30 24.5 43t49.5 13q23 0 32 -5.5t9 -20.5q0 -25 -25 -137
q-28 -128 -28 -158q0 -19 8 -29.5t21 -10.5q20 0 47.5 24.5t73.5 79.5q12 14 27 14q13 0 20.5 -12t7.5 -33q0 -40 -19 -62q-43 -53 -92.5 -87t-112.5 -34q-48 0 -70.5 37t-22.5 104q-17 -68 -51 -104.5t-73 -36.5q-45 0 -73.5 41.5zM180.5 541.5q-10.5 10.5 -10.5 26.5
q0 7 3 16l64 209q6 21 21.5 32t34.5 11q26 0 46 -17.5t20 -45.5q0 -23 -15 -48l-103 -172q-6 -11 -15.5 -16.5t-19.5 -5.5q-15 0 -25.5 10.5zM361.5 541.5q-10.5 10.5 -10.5 26.5q0 7 3 16l64 209q6 21 21.5 32t34.5 11q26 0 46 -17.5t20 -45.5q0 -23 -15 -48l-103 -172
q-6 -11 -15.5 -16.5t-19.5 -5.5q-15 0 -25.5 10.5z" />
    <glyph glyph-name="Uogonek" unicode="&#x172;" horiz-adv-x="890" 
d="M1011.5 211q7.5 -12 7.5 -33q0 -39 -19 -62q-68 -81 -133 -106q-35 -24 -51 -53t-16 -58t18 -44t44 -15t47 7q17 6 27 6q14 0 20 -9.5t6 -28.5q0 -21 -11 -35.5t-36 -23.5q-12 -4 -31.5 -7t-35.5 -3q-70 0 -112 36.5t-42 99.5q0 65 45 118q-59 12 -89.5 52t-30.5 96
q0 38 16 148q-50 -147 -126.5 -224t-176.5 -77q-84 0 -127 46.5t-43 124.5q0 44 13 107l62 286q2 8 9.5 44t7.5 78q0 24 -9.5 36t-25.5 12q-30 0 -70 -28.5t-84 -87.5q-14 -19 -31 -19q-14 0 -24.5 13.5t-10.5 30.5q0 31 28 70q102 140 239 140q61 0 95.5 -37t34.5 -109
q0 -51 -7 -94t-24 -117l-41 -183q-2 -9 -7 -32t-8 -43.5t-3 -40.5q0 -32 18 -51t51 -19q60 0 121.5 64t114 206.5t81.5 364.5q7 51 20.5 71t52.5 20q35 0 52 -21t17 -68q0 -27 -6.5 -71t-19.5 -123q-27 -153 -43 -281q-8 -58 -8 -86q0 -41 18.5 -62.5t49.5 -21.5
q33 0 64.5 22t74.5 73q12 14 27 14q13 0 20.5 -12z" />
    <glyph glyph-name="uogonek" unicode="&#x173;" horiz-adv-x="462" 
d="M282.5 -214.5q-40.5 35.5 -40.5 96.5q0 36 17.5 71t50.5 63q-36 35 -36 120q-17 -68 -51 -104.5t-73 -36.5q-45 0 -73.5 41.5t-28.5 103.5q0 75 10 137.5t33 132.5q10 30 28 43t57 13q22 0 30.5 -7t8.5 -21q0 -8 -11 -54q-10 -37 -16 -67q-20 -105 -20 -140
q0 -21 5 -29.5t16 -8.5q15 0 37.5 30t48 91t49.5 150q8 30 24.5 43t49.5 13q23 0 32 -5.5t9 -20.5q0 -25 -25 -137q-28 -128 -28 -158q0 -19 8 -29.5t21 -10.5q20 0 47.5 24.5t73.5 79.5q12 14 27 14q13 0 20.5 -12t7.5 -33q0 -40 -19 -62q-59 -69 -141 -116
q-46 -26 -66.5 -50t-20.5 -51q0 -29 18 -44t44 -15t47 7q17 6 27 6q26 0 26 -37q0 -40 -47 -56q-12 -4 -31.5 -7t-35.5 -3q-69 0 -109.5 35.5z" />
    <glyph glyph-name="Wcircumflex" unicode="&#x174;" horiz-adv-x="1217" 
d="M1351.5 422q10.5 -10 10.5 -26q0 -26 -15.5 -46t-48.5 -21q-79 -1 -142 12q-70 -149 -168.5 -247.5t-194.5 -98.5q-88 0 -132 93.5t-50 250.5q-60 -174 -135.5 -259t-160.5 -85q-96 0 -145 119.5t-49 321.5q0 147 26 323q7 50 25.5 69.5t58.5 19.5q30 0 46.5 -13
t16.5 -48q0 -7 -2 -27q-30 -205 -30 -349q0 -134 23 -207t62 -73q35 0 84.5 73.5t98.5 218t83 344.5q8 46 29.5 63.5t58.5 17.5q31 0 45.5 -13.5t14.5 -40.5q0 -16 -2 -25q-28 -163 -28 -326q0 -111 7.5 -177t29 -100.5t62.5 -34.5q48 0 107 72.5t108 180.5q-61 38 -92 98.5
t-31 139.5t24.5 133.5t67 81.5t94.5 27q64 0 101.5 -46t37.5 -126q0 -113 -49 -251q51 -9 120 -9q23 0 33.5 -10zM1086 484q39 112 39 185q0 42 -11 61.5t-30 19.5q-27 0 -44 -31.5t-17 -89.5q0 -98 63 -145zM731 1093l-80 -142q-11 -20 -29 -30t-37 -10q-21 0 -36 11.5
t-15 30.5q0 17 13 37l92 137q37 56 105 56q31 0 49.5 -16t33.5 -53l47 -121q6 -15 6 -28q0 -24 -17 -38.5t-40 -14.5q-17 0 -31.5 9.5t-19.5 26.5z" />
    <glyph glyph-name="wcircumflex" unicode="&#x175;" horiz-adv-x="700" 
d="M804 305q15 0 23 -10t8 -27q0 -31 -12 -48.5t-36 -25.5q-46 -15 -98 -15q-44 0 -83 12q-29 -47 -64 -97q-40 -57 -68.5 -78t-64.5 -21q-40 0 -60.5 31t-25.5 102l-5 73q-31 -84 -55.5 -128t-49 -61t-57.5 -17q-41 0 -64.5 32t-29.5 101q-12 140 -12 245v35q1 33 18 46
t51 13q26 0 38.5 -11.5t12.5 -38.5q0 -115 14 -299q68 143 125 298q11 30 26.5 40.5t37.5 10.5q27 0 37.5 -11t10.5 -39q0 -115 14 -299q60 89 90 142q-15 29 -15 69q0 34 15 66t41 52t59 20q29 0 47 -20.5t18 -59.5q0 -45 -24 -103q38 2 101 15l27 5q3 1 10 1zM454 542.5
q-14 11.5 -18 42.5l-23 177l-87 -177q-15 -31 -32 -42t-38 -11t-33.5 9.5t-12.5 27.5q0 17 11 36l112 193q18 31 40.5 46.5t53.5 15.5q30 0 47 -18t26 -57l44 -180q3 -12 3 -22q0 -25 -16.5 -38.5t-39.5 -13.5t-37 11.5z" />
    <glyph glyph-name="Ycircumflex" unicode="&#x176;" horiz-adv-x="851" 
d="M926 226q34 0 34 -44q0 -24 -10.5 -40.5t-32.5 -20.5q-91 -17 -179 -38l-3 -24q-28 -197 -111.5 -291.5t-208.5 -94.5q-83 0 -128.5 40.5t-45.5 103.5q0 105 94 187t285 145l20 141q4 24 10 64q-47 -124 -120 -185t-163 -61q-86 0 -131 52.5t-45 135.5q0 37 8 81.5
t25 120.5q15 69 22.5 110t7.5 73q0 48 -37 48q-29 0 -68.5 -28.5t-83.5 -87.5q-14 -19 -31 -19q-14 0 -24.5 13.5t-10.5 30.5q0 31 28 70q102 140 239 140q61 0 95.5 -37t34.5 -109q0 -52 -9.5 -106.5t-28.5 -138.5q-12 -50 -18 -80.5t-6 -50.5q0 -51 18 -73t63 -22
q54 0 110.5 59.5t102 180.5t65.5 296q5 44 23 62.5t52 18.5q70 0 70 -70q0 -12 -1 -19q-21 -149 -39 -269q-10 -72 -21.5 -148t-22.5 -154q73 20 154 36q6 2 18 2zM605 44q-242 -84 -242 -204q0 -28 17.5 -46.5t49.5 -18.5q139 0 174 262zM578 1093l-80 -142
q-11 -20 -29 -30t-37 -10q-21 0 -36 11.5t-15 30.5q0 17 13 37l92 137q37 56 105 56q31 0 49.5 -16t33.5 -53l47 -121q6 -15 6 -28q0 -24 -17 -38.5t-40 -14.5q-17 0 -31.5 9.5t-19.5 26.5z" />
    <glyph glyph-name="ycircumflex" unicode="&#x177;" horiz-adv-x="479" 
d="M580.5 208.5q7.5 -12.5 7.5 -31.5q0 -23 -7 -36t-22 -23l-192 -129q-38 -207 -99.5 -325.5t-156.5 -118.5q-51 0 -83 31.5t-32 82.5q0 47 21.5 96t80 112.5t165.5 145.5l3 23q7 37 16 106q-20 -72 -56 -109.5t-76 -37.5q-45 0 -73.5 41.5t-28.5 103.5q0 75 10 137.5
t33 132.5q10 30 28 43t57 13q22 0 30.5 -7t8.5 -21q0 -8 -11 -54q-10 -37 -16 -67q-8 -41 -14 -78.5t-6 -61.5q0 -38 21 -38q15 0 37.5 30t48 91t49.5 150q8 30 24.5 43t49.5 13q23 0 32 -6t9 -20q0 -25 -26 -172l-26 -161q77 58 150 106q13 8 23 8q13 0 20.5 -12.5z
M178 -300q31 58 62 193q-77 -65 -111.5 -118.5t-34.5 -93.5q0 -17 6.5 -28t21.5 -11q25 0 56 58zM369 542.5q-14 11.5 -18 42.5l-23 177l-87 -177q-15 -31 -32 -42t-38 -11t-33.5 9.5t-12.5 27.5q0 17 11 36l112 193q18 31 40.5 46.5t53.5 15.5q30 0 47 -18t26 -57l44 -180
q3 -12 3 -22q0 -25 -16.5 -38.5t-39.5 -13.5t-37 11.5z" />
    <glyph glyph-name="Ydieresis" unicode="&#x178;" horiz-adv-x="851" 
d="M926 226q34 0 34 -44q0 -24 -10.5 -40.5t-32.5 -20.5q-91 -17 -179 -38l-3 -24q-28 -197 -111.5 -291.5t-208.5 -94.5q-83 0 -128.5 40.5t-45.5 103.5q0 105 94 187t285 145l20 141q4 24 10 64q-47 -124 -120 -185t-163 -61q-86 0 -131 52.5t-45 135.5q0 37 8 81.5
t25 120.5q15 69 22.5 110t7.5 73q0 48 -37 48q-29 0 -68.5 -28.5t-83.5 -87.5q-14 -19 -31 -19q-14 0 -24.5 13.5t-10.5 30.5q0 31 28 70q102 140 239 140q61 0 95.5 -37t34.5 -109q0 -52 -9.5 -106.5t-28.5 -138.5q-12 -50 -18 -80.5t-6 -50.5q0 -51 18 -73t63 -22
q54 0 110.5 59.5t102 180.5t65.5 296q5 44 23 62.5t52 18.5q70 0 70 -70q0 -12 -1 -19q-21 -149 -39 -269q-10 -72 -21.5 -148t-22.5 -154q73 20 154 36q6 2 18 2zM605 44q-242 -84 -242 -204q0 -28 17.5 -46.5t49.5 -18.5q139 0 174 262zM404 930.5q-19 18.5 -19 55.5
q0 41 22 64t59 23q32 0 51 -18.5t19 -55.5q0 -41 -22 -64t-59 -23q-32 0 -51 18.5zM612 930.5q-19 18.5 -19 55.5q0 41 22 64t59 23q32 0 51 -18.5t19 -55.5q0 -41 -22 -64t-59 -23q-32 0 -51 18.5z" />
    <glyph glyph-name="Zacute" unicode="&#x179;" horiz-adv-x="721" 
d="M842.5 211q7.5 -12 7.5 -33q0 -39 -19 -62q-56 -67 -108.5 -94t-126.5 -27q-52 0 -96 13t-107 39q-54 23 -96 37q-46 -50 -83 -69.5t-78 -19.5q-55 0 -88 25.5t-33 66.5q0 31 20.5 57t57.5 41t86 15q28 0 42 -1q196 244 354 515q-86 15 -175 15q-115 0 -168.5 -26.5
t-53.5 -83.5q0 -17 4 -29t12 -28q9 -18 9 -26q0 -20 -18.5 -33.5t-42.5 -13.5q-25 0 -41 15q-19 17 -30.5 46.5t-11.5 66.5q0 117 97 173t256 56q79 0 161.5 -9t154.5 -29q30 -8 40 -22.5t10 -37.5q0 -27 -14 -42t-39 -15h-7q-108 -176 -219 -338q-89 -129 -125 -175
q58 -13 101 -24q53 -14 85.5 -20.5t56.5 -6.5q58 0 99.5 19.5t78.5 62.5q12 14 27 14q13 0 20.5 -12zM431 922.5q-11 10.5 -11 25.5q0 20 19 36l172 147q20 17 44 17q26 0 45 -18.5t19 -44.5q0 -43 -53 -71l-187 -97q-9 -5 -21 -5q-16 0 -27 10.5z" />
    <glyph glyph-name="zacute" unicode="&#x17a;" horiz-adv-x="445" 
d="M567.5 211q7.5 -12 7.5 -33q0 -37 -19 -62q-47 -61 -116.5 -96t-156.5 -35q-68 0 -118 20.5t-76.5 56t-26.5 79.5q0 66 53 117t152 98l-164 -4q-22 -1 -33.5 15.5t-11.5 39.5q0 24 11.5 42.5t31.5 18.5q46 0 123 -7q16 -1 58.5 -4t71.5 -3q10 0 38 8q5 1 19.5 5t24.5 4
q16 0 26.5 -14t10.5 -43q0 -32 -15 -50t-47 -32q-91 -39 -151 -83.5t-60 -88.5q0 -28 26 -46t77 -18q56 0 113.5 28t103.5 85q12 14 27 14q13 0 20.5 -12zM263.5 542.5q-10.5 10.5 -10.5 25.5q0 7 5 19l93 208q9 20 23.5 29.5t32.5 9.5q25 0 44.5 -18t19.5 -45
q0 -28 -22 -56l-129 -166q-13 -17 -32 -17q-14 0 -24.5 10.5z" />
    <glyph glyph-name="Zdotaccent" unicode="&#x17b;" horiz-adv-x="721" 
d="M842.5 211q7.5 -12 7.5 -33q0 -39 -19 -62q-56 -67 -108.5 -94t-126.5 -27q-52 0 -96 13t-107 39q-54 23 -96 37q-46 -50 -83 -69.5t-78 -19.5q-55 0 -88 25.5t-33 66.5q0 31 20.5 57t57.5 41t86 15q28 0 42 -1q196 244 354 515q-86 15 -175 15q-115 0 -168.5 -26.5
t-53.5 -83.5q0 -17 4 -29t12 -28q9 -18 9 -26q0 -20 -18.5 -33.5t-42.5 -13.5q-25 0 -41 15q-19 17 -30.5 46.5t-11.5 66.5q0 117 97 173t256 56q79 0 161.5 -9t154.5 -29q30 -8 40 -22.5t10 -37.5q0 -27 -14 -42t-39 -15h-7q-108 -176 -219 -338q-89 -129 -125 -175
q58 -13 101 -24q53 -14 85.5 -20.5t56.5 -6.5q58 0 99.5 19.5t78.5 62.5q12 14 27 14q13 0 20.5 -12zM397 932.5q-22 20.5 -22 55.5q0 36 28.5 60t69.5 24q38 0 61.5 -18.5t23.5 -52.5q0 -41 -27 -65t-70 -24q-42 0 -64 20.5z" />
    </font>
</defs>
</svg>
