<?xml version="1.0" standalone="no"?>
<!DOCTYPE svg PUBLIC "-//W3C//DTD SVG 1.1//EN" "http://www.w3.org/Graphics/SVG/1.1/DTD/svg11.dtd" >
<svg>
<metadata>
Created by FontForge 20110222 at Thu Nov 27 18:53:10 2014
 By deploy user
</metadata>
<defs>
<font id="Beryozki" horiz-adv-x="278" >
  <font-face 
    font-family="Beryozki"
    font-weight="400"
    font-stretch="normal"
    units-per-em="1000"
    panose-1="0 0 0 0 0 0 0 0 0 0"
    ascent="750"
    descent="-250"
    x-height="416"
    cap-height="694.5"
    bbox="-0.571429 -207.083 335 774.091"
    underline-thickness="50"
    underline-position="-50"
    unicode-range="U+000D-201D"
  />
<missing-glyph horiz-adv-x="500" 
 />
    <glyph glyph-name=".notdef" horiz-adv-x="500" 
 />
    <glyph glyph-name="NULL" horiz-adv-x="0" 
 />
    <glyph glyph-name="NULL" horiz-adv-x="0" 
 />
    <glyph glyph-name="nonmarkingreturn" unicode="&#xd;" horiz-adv-x="500" 
 />
    <glyph glyph-name="space" unicode=" " horiz-adv-x="152" 
 />
    <glyph glyph-name="uni0418" unicode="&#x418;" 
d="M176 442q-1 -4 -5 -14q-17 -60 -34 -120.5t-34 -120.5q-8 -26 -14 -52.5t-14 -52.5q-5 -17 -11 -34l-12 -34q-5 -12 -17 -15q-27 -3 -25 23q2 44 3.5 87t2.5 88q1 30 -1.5 60t-2.5 60q0 36 0.5 72t2.5 72q2 35 1 69.5t-3 69.5q-1 14 -1.5 29t1.5 29q0 12 7 28q2 5 7.5 8
t11.5 0q3 -2 5.5 -6t4.5 -9q1 -2 0.5 -4t-0.5 -4q-4 -31 -2 -62t4 -63q1 -8 1 -15v-15q-2 -48 -3.5 -94t-2.5 -94q0 -28 1.5 -56t3.5 -56v-23t1 -23v-9t1 -11q9 10 11.5 19.5t4.5 17.5q14 50 27 99t26 99l16 62l16 62q3 11 6 21.5t9 19.5q9 16 9 33l2 34l2 34q2 12 4 19
q7 17 21 13q15 -3 15 -17q1 -16 1 -31.5v-31.5l-3 -90q-1 -23 -1.5 -46.5t-0.5 -46.5q-1 -16 0 -32t1 -33q0 -5 0.5 -11t-1.5 -11q-4 -20 -4 -40.5t2 -40.5q1 -31 1.5 -61.5t-3.5 -61.5q0 -5 -0.5 -9.5t0.5 -9.5q4 -23 1.5 -45t-3.5 -44q0 -6 -1 -8q-7 -20 -22 -17
q-14 3 -14 21q0 5 1 8q5 53 4.5 105t0.5 105q1 35 -1 69.5t-3 69.5q0 17 1 34l2 34h-4z" />
    <glyph glyph-name="uni0413" unicode="&#x413;" horiz-adv-x="250" 
d="M45 480q0 -14 -2 -26.5t-3 -26.5q-1 -23 -0.5 -46t-0.5 -46q0 -25 -1 -49t-1 -49q-1 -11 0 -22.5t1 -22.5q0 -32 2 -64l4 -64q2 -11 1 -23l-2 -24q0 -15 -18 -17q-9 0 -15 5t-6 13q0 6 4 16q10 22 5 49q-4 20 -5.5 40t0.5 41q1 6 0.5 12t-1.5 13q-1 6 -1.5 12t-0.5 13
q2 63 3 126.5t3 127.5q1 20 0 39t-1 39v54.5t1 54.5q2 31 30 34q21 2 42 2t42 -1q18 0 36 -2l36 -4q6 -1 11 -2t8 -6q7 -11 2 -20.5t-18 -8.5q-17 2 -34.5 4t-34.5 3q-17 2 -35 1.5t-35 -1.5q-7 0 -9.5 -4.5t-2.5 -10.5q-2 -18 -2.5 -36t-1.5 -37v-32v-54z" />
    <glyph glyph-name="uni041F" unicode="&#x41f;" horiz-adv-x="264" 
d="M12 376v123t-1 123v24t2 23q2 15 9 20.5t22 3.5q30 -2 60 -5.5t60 -7.5q13 -2 20.5 -9t5.5 -18q-3 -28 0.5 -54.5t5.5 -53.5q1 -20 1 -40t-2 -40q-5 -56 -3.5 -111.5t0.5 -111.5v-141q0 -20 0.5 -39t5.5 -38q1 -4 1 -11q-2 -7 -7 -11.5t-10 -3.5q-14 0 -16 13
q-2 5 -2 10.5v11.5v99t-1 100q0 45 -1 88.5t-2 87.5q0 17 1 33.5t2 33.5q2 29 1 56.5t-6 56.5q-2 12 -2 24.5v24.5q-2 14 -14 15q-20 2 -41 3t-41 3q-16 0 -16 -15q-2 -51 -3 -100.5t-2 -100.5q-1 -32 -0.5 -64t-0.5 -64q-1 -42 -1.5 -84t-2.5 -84v-83q0 -9 1 -18l2 -18
q2 -14 -7 -23q-6 -6 -14 -3.5t-9 11.5q-2 9 -2 18.5v19.5q1 51 2 102.5t2 102.5q0 23 1 45q1 19 1.5 40t0.5 36z" />
    <glyph glyph-name="uni0422" unicode="&#x422;" 
d="M140 457q0 -29 -0.5 -57t-0.5 -57q1 -27 2.5 -53.5t1.5 -52.5q0 -46 -1 -91.5t-1 -92.5q-1 -8 -0.5 -15t-0.5 -15q-2 -12 -4 -19q-7 -12 -19 -9q-15 3 -14 18q2 26 3.5 52.5t3.5 52.5q1 4 1 7.5v6.5l-6 147q-1 28 -0.5 55.5t-0.5 55.5q-2 51 -4 101.5t-4 101.5v42
q0 14 -14 14q-12 0 -23.5 0.5t-23.5 0.5q-8 1 -14 3t-11 7q-8 8 -6.5 16.5t12.5 11.5q10 2 17 1q24 -1 48 -2.5t49 2.5q4 1 8 0.5t8 -1.5q16 -3 31.5 -4t32.5 1q18 3 21 -14q2 -8 -2.5 -14.5t-13.5 -7.5q-11 -1 -22 -0.5t-22 0.5q-6 1 -11.5 2t-10.5 2q-14 2 -15 -13
q0 -8 0.5 -16.5t0.5 -16.5q0 -19 0.5 -44.5t1.5 -49t2 -40z" />
    <glyph glyph-name="uni0428" unicode="&#x428;" horiz-adv-x="347" 
d="M256 375v-270v-17t-2 -17q-5 -25 13 -37q5 -4 8 -8t1 -11q-5 -12 -20 -14q-11 -1 -22 -1h-22h-35.5t-35.5 1q-23 1 -47 1.5t-48 2.5q-28 0 -29 30q-1 17 -1 32.5v32.5q0 36 1 72.5t1 73.5q-2 76 -6 151q-3 55 -2.5 109t3.5 108q0 11 -0.5 23t-1.5 24q0 5 -1 8.5t-1 8.5
q0 12 11 18q14 5 23 -7q2 -4 4 -8.5t2 -9.5q1 -21 1.5 -42t0.5 -42q-1 -33 -3 -66t-1 -66q1 -42 4 -82.5t5 -82.5q1 -19 0.5 -37t-1.5 -36q0 -38 -0.5 -76t-1.5 -76q0 -7 1 -11q2 -11 13 -13q8 -1 15.5 -1.5t15.5 -2.5q14 -2 19 2.5t6 18.5q0 19 -0.5 37.5t-1.5 37.5
q-2 27 -3.5 53.5t-2.5 53.5q-1 17 1 33.5t2 33.5t-1 32.5t-2 32.5q0 6 -0.5 12.5t0.5 12.5q2 18 2.5 35t-4.5 35q-2 11 4.5 18t18.5 6q17 -2 18 -21q1 -15 0.5 -30t0.5 -29q1 -23 1.5 -45t0.5 -45q1 -13 0 -26q-3 -33 -3 -65.5t4 -65.5q2 -23 2 -45v-45q1 -6 0.5 -11.5
t0.5 -11.5q2 -13 15 -14q4 -1 8 -1h8q15 0 18 3t3 17q1 17 0 32.5t0 32.5q0 16 1 32l2 32q2 44 3 87t1 87q1 57 0.5 112.5t-1.5 112.5v79v8t1 9q2 9 10.5 11.5t16.5 -4.5q6 -5 7.5 -12.5t1.5 -15.5q0 -20 -0.5 -38.5t-0.5 -37.5v-208h1z" />
    <glyph glyph-name="uni0420" unicode="&#x420;" horiz-adv-x="250" 
d="M39 95q-1 -19 -1.5 -38t-1.5 -39q0 -5 -1 -8q-3 -13 -15 -13q-15 0 -15 16v8q5 57 7.5 112.5t-0.5 112.5q-2 45 -1.5 88t2.5 88q3 56 2 111t-8 111q-2 8 -1.5 17.5t2.5 17.5q4 20 26 17q8 -1 15 -2t15 -3q14 -2 26.5 -7t23.5 -14l30 -24q29 -22 31 -61q2 -49 4 -97.5
t2 -97.5q0 -34 -2.5 -67t-4.5 -67q-1 -11 -0.5 -20.5t5.5 -19.5t0.5 -17t-15.5 -9q-6 -2 -12 -2h-12q-20 1 -40 1.5t-40 1.5q-11 1 -14 -1.5t-4 -14.5q-1 -20 -1.5 -40t-1.5 -40zM146 335q1 24 2.5 48t0.5 48q0 61 -6 123q-2 23 -2.5 34.5t-4.5 18.5t-12.5 13.5l-25.5 19.5
q-5 3 -9 6t-9 5q-8 3 -15 4l-14 2q-10 1 -10 -10q-1 -5 -0.5 -8.5t0.5 -7.5q2 -17 3 -33t1 -33q1 -47 -0.5 -93t-3.5 -93q-2 -17 0.5 -34t-0.5 -34t-1 -33t2 -33q-1 -17 18 -20q16 -2 32 -2t33 -1q14 -1 16 15q1 5 1.5 9.5t0.5 9.5q1 20 1.5 39.5t1.5 39.5z" />
    <glyph glyph-name="uni041C" unicode="&#x41c;" horiz-adv-x="389" 
d="M156 586q20 29 45 47.5t53 32.5q10 5 20.5 8.5t21.5 5.5q14 2 20 -5.5t1 -20.5q-8 -17 -3 -38q1 -5 1.5 -10.5t0.5 -10.5q1 -38 1.5 -74.5t-1.5 -73.5q-2 -54 0 -108t1 -108q-1 -32 0.5 -62.5t2.5 -61.5q1 -21 1.5 -42t0.5 -42q2 -20 -14 -23q-8 -1 -14.5 4t-8.5 13
q-1 5 -1 14q-2 40 -3 80l-2 80q-1 30 0.5 59.5t-0.5 59.5q-2 34 -1.5 68t3.5 69q2 17 0.5 35t-2.5 36q0 13 -0.5 26t-0.5 27q-1 10 -0.5 19.5t-0.5 19.5q-1 18 -6.5 21.5t-19.5 -6.5q-11 -8 -22 -16.5t-21 -18.5q-25 -27 -31 -65q-4 -27 -3 -53.5t2 -52.5q0 -33 1 -66.5
t1 -67.5q0 -10 -5 -20q-7 -12 -18 -9q-13 4 -14 14q-1 5 -1 9v9v72q2 41 -1.5 80.5t-11.5 79.5q-2 10 -2 15q0 25 -11 44t-25 37q-13 15 -40 21v-17q1 -23 2 -47l2 -48q0 -50 -1 -99.5t2 -100.5q3 -50 3 -99v-99q0 -15 -0.5 -30t-0.5 -30q-1 -14 0 -27.5t7 -27.5
q5 -9 -3 -17t-21 -10q-8 -2 -14 3t-6 16q-1 21 -0.5 42t0.5 42v130t-1 129q0 36 0.5 71.5t-0.5 71.5q-2 36 -4.5 72t-4.5 72q-1 8 -1.5 15t0.5 14q3 24 28 21q10 -2 17 -6q13 -6 25.5 -11.5t24.5 -13.5q6 -4 11.5 -10t10.5 -12q8 -10 15 -20.5t16 -24.5z" />
    <glyph glyph-name="uni041E" unicode="&#x41e;" horiz-adv-x="277" 
d="M208 444q1 -29 2 -59t2 -59q2 -32 1 -64.5t-6 -64.5v-13q1 -20 1 -38.5t1 -37.5q0 -23 0.5 -45t1.5 -45v-9t-2 -9q-2 -6 -6.5 -8.5t-9.5 0.5q-14 6 -27.5 5.5t-27.5 0.5q-25 2 -49.5 3.5t-49.5 3.5q-18 1 -23 19q-1 5 -1 16q-1 52 -1 103.5t-1 104.5q0 13 -1 26t-1 26
q-1 5 -1 14q5 38 3 74.5t-4 74.5q-2 33 0 66t10 65q4 15 11 28t16 26q16 23 43 31t53 1q14 -4 24 -13.5t16 -23.5q10 -20 15.5 -41.5t8.5 -43.5q2 -15 3 -29.5t2 -28.5q0 -14 -0.5 -28t-0.5 -28h-2zM47 180q-1 -35 -1 -60.5t-1 -48.5q0 -5 0.5 -8.5t1.5 -7.5
q2 -10 5.5 -12.5t13.5 -4.5q13 -1 25.5 -2t24.5 -2q11 0 21 -0.5t21 1.5t13.5 5t1.5 14t-1.5 22.5t-0.5 22.5q1 22 2.5 43.5t-0.5 43.5q-2 8 -0.5 15.5t1.5 15.5q2 23 3 46t1 46q0 26 -1 50.5t-2 49.5q0 21 1 42.5t0 42.5q-2 22 -4 43.5t-6 42.5q-2 10 -7 20.5t-13 19.5
t-19 14.5t-25 5.5q-15 0 -21 -7q-14 -16 -22.5 -34t-10.5 -39q-2 -29 -4 -59t0 -59q2 -32 3.5 -63t-3.5 -63q-1 -8 -0.5 -15t0.5 -14q1 -31 1.5 -59t1.5 -48z" />
    <glyph glyph-name="uni0429" unicode="&#x429;" horiz-adv-x="347" 
d="M115 127q-1 38 -2.5 75.5t-1.5 75.5q0 32 2 63t2 63q0 17 -1.5 33t-3.5 33q0 5 -0.5 10t6.5 8q8 3 16.5 1t12.5 -8q4 -10 5 -15q1 -14 2.5 -26.5t1.5 -26.5l-2 -56t-2 -57q0 -10 -0.5 -19.5t-0.5 -19.5q1 -39 1.5 -78t0.5 -78q0 -7 -0.5 -13.5t-0.5 -12.5t-0.5 -12
t0.5 -12q3 -14 18 -16q12 0 24 0.5t24 1.5q11 0 11 12q1 9 1 18.5v18.5q-1 22 -1.5 43.5t0.5 43.5q0 11 1 21t2 21q1 8 1.5 15t-0.5 14q-4 26 -3.5 51.5t2.5 51.5q0 3 0.5 6.5t-0.5 6.5q-4 28 -2.5 55.5t3.5 54.5q1 33 0.5 66t-0.5 66v17t0.5 22l1 22t1.5 17q1 18 18 10
q20 -6 17 -26q-2 -12 -3 -29t-1 -34.5t0.5 -34.5t2.5 -29q2 -11 1.5 -21t-1.5 -21l-2 -58t-1 -58q-1 -48 0.5 -96.5t-1.5 -96.5q-2 -35 0.5 -68.5t1.5 -68.5q-1 -11 2 -14t14 -4q23 -2 28 -14t6 -27q0 -10 -1 -19l-2 -18q-2 -15 -13 -18q-6 -2 -13 2t-9 10q-2 8 -3 15.5
t-2 15.5q-1 14 -4 17.5t-17 5.5q-20 1 -39 0q-36 -5 -71.5 -5t-70.5 3q-6 0 -16 -2q-26 -3 -29 23q-3 29 -5.5 58.5t-4.5 59.5q0 1 -0.5 2t0.5 3q3 23 3 46t-1.5 46l-3 46t0.5 46q3 39 4 78l2 78q0 21 -1.5 42t-1.5 42q0 8 -0.5 22.5t-0.5 29.5t0.5 29.5t0.5 22.5q0 11 3 15
t10 4q18 0 23 -18v-5q0 -23 0.5 -52t1 -59t1 -59.5t0.5 -52.5q0 -32 -1.5 -63t-3.5 -63q0 -2 0.5 -4t-0.5 -4q-9 -19 -6 -37.5t4 -37.5q1 -20 2 -39.5t1 -39.5q-1 -23 0 -46t6 -46q4 -20 17 -27.5t31 0.5q3 1 5 5t2 7q1 19 0.5 37.5t-0.5 36.5h1z" />
    <glyph glyph-name="uni0427" unicode="&#x427;" horiz-adv-x="237" 
d="M117 466q2 23 3 44t-1 42v42q0 12 0.5 24.5t0.5 25.5q0 22 14 24q8 2 14 -4.5t8 -17.5q1 -8 1 -15.5v-15.5q-2 -54 -3.5 -107t-2.5 -107q-1 -32 10 -69q5 -17 4 -35t0 -36q0 -5 -1.5 -9t-0.5 -9q4 -23 2.5 -46t-5.5 -46q-1 -4 -1.5 -7.5t0.5 -8.5l2 -56t3 -56
q0 -4 0.5 -7t-0.5 -6q-2 -8 -7 -12.5t-11 -4.5t-11.5 4t-7.5 11q-1 2 -1 8q-2 25 -3 49.5t-1 50.5q-1 29 -0.5 58t-0.5 58q-1 41 -2.5 81.5t-2.5 81.5q0 17 -6.5 27.5t-23.5 15.5q-15 5 -26.5 14.5t-21.5 21.5q-5 5 -9.5 10.5t-8.5 11.5q-3 5 -5.5 10.5t-4.5 11.5
q-8 33 -5.5 66.5t4.5 66.5q0 13 12 16q13 3 20 -9q4 -10 4 -18v-15.5t-2 -15.5q-4 -20 -3.5 -38.5t4.5 -37.5q5 -26 24 -43.5t49 -23.5z" />
    <glyph glyph-name="uni0426" unicode="&#x426;" horiz-adv-x="281" 
d="M13 147q-1 42 -1.5 75t-0.5 65q0 43 1 85t1 85q0 21 -1.5 42t-1.5 41q1 32 3 64l4 64q1 21 18 21q7 1 12.5 -4t5.5 -12q1 -5 0.5 -10t-1.5 -10q-5 -20 -5 -41v-42q1 -31 1 -62v-63q-1 -20 -2.5 -38.5t-2.5 -38.5q0 -8 1 -15.5t1 -15.5q0 -23 -0.5 -46t0.5 -46
q0 -45 0.5 -90t0.5 -91q1 -13 3.5 -16t15.5 -5q20 -2 40 -4.5t40 -4.5q10 -1 12 1.5t3 12.5q1 4 1 8t1 8q2 36 3.5 71.5t2.5 70.5q1 32 0.5 62.5t-1.5 62.5q-2 54 -3 108.5t-2 108.5q-1 27 -0.5 54.5t0.5 54.5v5q1 7 3 12t10 7t14.5 -2.5t8.5 -13.5q2 -12 2.5 -24.5
t1.5 -25.5v-2q-8 -53 -4.5 -104.5t1.5 -104.5q-2 -29 0.5 -57t1.5 -57q0 -42 -1 -83.5t-2 -83.5q-1 -18 -1 -36t-1 -36q0 -16 14 -17q5 0 8.5 -1t7.5 -3q16 -5 16 -20q1 -34 0 -67q0 -4 -2 -8q-3 -13 -16 -13q-16 0 -20 12q-3 9 -3 19q-1 5 0 8.5t1 8.5q0 18 -5 23.5
t-23 6.5q-26 0 -50.5 0.5t-49.5 5.5q-5 2 -11 1t-11 -2q-30 -4 -37 23q-3 15 -3 31q0 25 0.5 48.5t0.5 39.5z" />
    <glyph glyph-name="uni042C" unicode="&#x42c;" horiz-adv-x="236" 
d="M114 4q-8 1 -16 1t-16 1q-17 2 -29 -5q-11 -5 -15.5 -4t-12.5 10q-10 9 -14 19t3 24q2 5 2 11t1 11q5 57 2.5 113t-5.5 113q-2 26 -1.5 53t-1.5 53q-2 39 1 77.5t4 77.5v46t-1 46v11.5t1 10.5q2 8 8 13t14 4q15 0 17 -17q2 -11 2 -20.5v-20.5q0 -17 -0.5 -34t-0.5 -34
q-1 -14 4.5 -23t20.5 -16q29 -13 52 -33t34 -52q8 -23 9 -46q2 -32 3 -65t2 -65q1 -15 1 -30v-30q0 -32 -0.5 -64t-0.5 -64q0 -12 -0.5 -24t5.5 -24q5 -8 1.5 -14.5t-11.5 -9.5q-9 -3 -21 -3q-11 0 -20.5 0.5t-20.5 1.5v1zM59 496q-2 -8 -3 -14.5t-1 -13.5q1 -48 1 -96.5
t2 -96.5q0 -20 2 -40.5t2 -40.5q1 -29 2.5 -57t-4.5 -57q-2 -6 -1 -12t1 -13q0 -15 15 -15q11 -1 23 -2t23 -1q13 -1 16 2t5 16q5 54 3.5 107t-3.5 107q-1 12 -2 23.5t-2 22.5l-3 90q-1 37 -22.5 57t-53.5 34z" />
    <glyph glyph-name="uni042A" unicode="&#x42a;" horiz-adv-x="306" 
d="M102 613v-53q0 -13 12 -19q9 -3 17 -6.5t17 -6.5q35 -12 54.5 -37t30.5 -58q7 -24 10.5 -48t2.5 -50q-1 -17 0 -34.5t2 -34.5q1 -25 2 -49.5t-3 -49.5q-2 -14 -1.5 -28.5t1.5 -29.5q0 -19 1 -38t2 -39q0 -15 -4.5 -20t-18.5 -7q-20 -2 -40 -2h-40q-5 0 -10.5 1t-11.5 1
q-8 0 -15 -1.5t-14 -9.5q-10 -10 -19 -7.5t-14 16.5q-2 5 -2 9.5t-1 9.5q-1 24 -1.5 47.5t-1.5 46.5q-2 19 0 39q4 48 4.5 96t-4.5 97q-2 17 -0.5 35t2.5 36q0 17 0.5 33t1.5 33q0 33 -0.5 66.5t-0.5 66.5q0 17 -4.5 26.5t-26.5 12.5q-6 0 -10 3q-6 3 -10 10.5t-2 12.5
q2 6 7 7.5t11 2.5h9.5t9.5 -2q16 -4 27 -1q30 6 30 -25v-52h1zM203 179q0 26 0.5 51t-0.5 51q0 26 -1 51t-3 51q-3 31 -12 59q-8 31 -36 44q-8 4 -17 7.5t-18 6.5q-13 4 -13 -11q1 -8 1.5 -16.5t-0.5 -16.5q-1 -25 -2 -49.5t-1 -49.5q0 -29 1.5 -56.5t1.5 -56.5
q0 -26 -1.5 -51t-1.5 -51q0 -20 1 -41t3 -41q2 -11 5 -14t14 -5q8 -1 15 -1.5t15 -0.5q22 0 32.5 0.5t15 5t4.5 14.5v30q0 23 -1 45t-2 45z" />
    <glyph glyph-name="uni042B" unicode="&#x42b;" horiz-adv-x="333" 
d="M192 74q0 -12 -0.5 -24t6.5 -23q5 -8 1.5 -14.5t-11.5 -9.5q-8 -4 -21 -4q-10 0 -20 0.5t-20 0.5v1q-8 1 -16 1h-16q-17 2 -29 -5q-11 -6 -15 -4.5t-13 9.5q-9 9 -13.5 19t1.5 24q2 5 2 10.5t1 11.5q3 56 -0.5 111.5t-7.5 111.5q-2 26 -2.5 52.5t-2.5 52.5q-3 39 -1 77.5
t2 76.5q0 23 -0.5 46t-1.5 46q0 5 -0.5 10.5t0.5 10.5q2 8 7.5 13t13.5 5q15 0 18 -17q2 -10 2 -20t1 -20v-68q0 -14 5.5 -23t20.5 -15q29 -12 52.5 -31.5t34.5 -51.5q4 -11 6 -22l4 -22q2 -32 4 -65t4 -65q1 -14 1 -29t1 -30q1 -32 1 -63.5t1 -63.5zM153 52q5 54 2 106.5
t-7 106.5q-1 11 -2 22.5t-2 22.5q-2 23 -3 44.5t-2 44.5q-2 37 -23.5 56.5t-54.5 32.5q-1 -8 -2 -14.5t0 -13.5q1 -95 6 -191q1 -20 3.5 -40.5t2.5 -40.5q2 -28 3.5 -56t-3.5 -57q-1 -5 0 -11.5t1 -12.5q2 -15 15 -15q12 -1 23.5 -1.5t22.5 -0.5q12 0 15 3t5 15zM265 68v-23
t-1 -23q0 -6 -4 -12q-7 -13 -19 -8q-9 4 -11 13q-2 6 -1 12l2 12q0 11 0.5 23t0.5 23q-1 27 -1 54v54q0 8 0.5 16t-0.5 16q-5 35 -3.5 68.5t7.5 68.5q4 13 1 23q-6 20 -6.5 39t1.5 39q1 14 2.5 28.5t1.5 28.5q1 13 1 25.5v25.5q0 22 -0.5 43t-0.5 43q0 17 14 21q7 2 13.5 -1
t9.5 -12q3 -8 3.5 -15.5t2.5 -15.5q-1 0 -2.5 -5t-0.5 -9q5 -27 1 -53.5t-6 -53.5q-2 -20 -3.5 -39t-2.5 -39q0 -11 2 -21t4 -21q1 -7 1.5 -13.5t-0.5 -13.5q-5 -24 -8.5 -47.5t-0.5 -48.5q2 -14 2 -28.5t-2 -28.5q-2 -36 0 -72.5t3 -72.5z" />
    <glyph glyph-name="uni0411" unicode="&#x411;" 
d="M38 628q1 -16 1.5 -31t1.5 -31q0 -5 -0.5 -9.5t0.5 -9.5q0 -11 0.5 -23t1.5 -23q0 -9 8 -7q6 0 9 1q12 3 25 0q9 -2 18.5 -3t19.5 -3q28 -5 46 -23q10 -9 16 -20.5t10 -25.5q5 -21 7 -42.5t1 -44.5q-1 -11 0.5 -22.5t2.5 -23.5v-43.5t1 -43.5q0 -17 0.5 -34t1.5 -34
q0 -13 -0.5 -25.5t-0.5 -25.5v-62q0 -5 2 -7q7 -11 1.5 -17t-14.5 -8q-12 -2 -23.5 -1t-23.5 4q-6 2 -12 2.5t-12 1.5q-10 2 -19.5 3t-20.5 2q-9 1 -18.5 1h-18.5q-6 0 -9 -3q-10 -7 -18.5 -2t-9.5 14q-1 18 -2.5 36t-2.5 36q-1 5 -1.5 8.5t-0.5 8.5q1 15 1.5 29.5t0.5 28.5
q0 9 -1 18.5t-1 18.5q-1 17 -1 35t3 36q2 10 2 19t1 19q1 14 2 29t1 29v24.5t-2 24.5q-2 13 -1 26.5t0 27.5q0 15 -0.5 29.5t-1.5 29.5v29q0 9 -0.5 17.5t-1.5 17.5q0 7 0.5 14t-0.5 15q-2 14 -1.5 28.5t1.5 28.5q0 2 -0.5 4.5t-0.5 5.5q1 3 1 6.5t2 6.5q8 13 22 6
q11 -6 20 -5q6 0 11.5 -1t10.5 -1q16 -1 31.5 -0.5t31.5 -0.5q8 0 15 -0.5t14 -2.5q10 -3 18 -11q5 -4 0.5 -12t-11.5 -10q-11 -2 -19 1q-11 3 -22 3h-22q-13 -1 -25.5 -1.5t-26.5 1.5q-7 2 -12 -1.5t-5 -11.5q0 -5 -0.5 -10t-0.5 -10zM76 463q-8 -2 -15 -2.5t-14 -2.5
q-4 0 -4 -5q-3 -21 0 -41q3 -23 3 -45q-1 -21 -2.5 -42.5t-2.5 -42.5q-1 -2 -1 -6q-2 -14 -3 -27.5t-2 -27.5q0 -16 0.5 -31.5t1.5 -30.5v-19.5t1 -19.5q0 -2 -0.5 -3t-0.5 -2q-1 -19 -0.5 -37.5t4.5 -36.5q1 -9 10 -10q7 -1 13.5 -1.5t13.5 0.5q11 2 21.5 0.5t21.5 -2.5
q11 -2 21.5 -4t21.5 -4q11 -1 10 9q0 10 -0.5 19.5t-0.5 19.5q1 17 1.5 32.5t0.5 32.5q0 13 -0.5 26t-1.5 26q0 7 0.5 13.5t-0.5 13.5q0 8 -0.5 16t-0.5 16v29.5t-1 29.5q-2 19 -3 37.5t-2 37.5q-1 14 -3.5 27t-8.5 25q-6 13 -17 18q-15 8 -30 10.5t-31 4.5z" />
    <glyph glyph-name="uni041A" unicode="&#x41a;" horiz-adv-x="264" 
d="M125 435q36 -16 48.5 -44t15.5 -63q4 -63 1.5 -126t-3.5 -126q0 -17 1 -32.5t2 -31.5v-9.5t-1 -9.5q-1 -11 -15 -13q-13 -2 -18 13q-1 3 -1 6.5v6.5q-2 21 -2.5 41.5t-2.5 41.5q0 2 -0.5 4t0.5 4q9 48 4.5 96t-1.5 97q1 14 -0.5 28t-2.5 28q-3 22 -19 40q-8 10 -20 13
q-11 4 -23 6.5t-23 5.5q-13 2 -14 -9q-2 -14 -4.5 -27.5t0.5 -27.5q5 -26 5.5 -51t-1.5 -51q-2 -47 -2.5 -93.5t-1.5 -94.5q0 -7 2 -14l4 -14q5 -22 -15 -26q-24 -8 -26 17v10.5t1 11.5q2 60 3 119t3 119q0 20 -2 40t-3 40q-1 5 -1.5 9.5t0.5 9.5q1 21 3 41.5t2 41.5
q-1 36 -2.5 72t-2.5 72q-1 17 0 35t1 35q0 5 3 10q5 13 16 11q13 0 16 -12q2 -5 1.5 -9t-0.5 -9v-67v-48q0 -17 0.5 -33.5t1.5 -33.5q1 -11 13 -20t23 -7q46 9 55 58q7 32 8 64t0 64q0 15 3 32q5 18 21 15q13 -3 13 -20t1 -35t-1 -35l-4 -58t-12 -58q-9 -24 -29 -38
q-4 -3 -8.5 -5.5t-9.5 -6.5z" />
    <glyph glyph-name="uni041B" unicode="&#x41b;" horiz-adv-x="292" 
d="M15 260q2 51 3.5 102.5t3.5 102.5q2 33 8 65t18 63q14 36 40.5 58t61.5 33q9 3 17.5 5.5t16.5 4.5q28 8 31 -20q2 -9 1.5 -18t-0.5 -18q1 -39 1 -78v-77q0 -45 -1 -89t1 -89q2 -62 -1 -122.5t-4 -121.5q0 -8 1.5 -15.5t8.5 -14.5q11 -12 -1 -26q-5 -5 -13 -11
q-29 -16 -32 17q-4 43 -2 86t3 86q1 45 0.5 90t-0.5 91v120q0 35 -0.5 71t-1.5 71v9q-2 18 -18 11q-34 -13 -56.5 -35t-28.5 -60q-1 -4 -1 -8t-1 -8q-14 -48 -14.5 -97t0.5 -99q1 -11 0.5 -23t-1.5 -23q-2 -22 -3.5 -43.5t-3.5 -43.5q-2 -33 -2.5 -66t-1.5 -66
q0 -13 1 -25.5t2 -26.5q0 -21 -20 -21q-8 -1 -13.5 5t-6.5 16v8q2 42 3 82t2 82z" />
    <glyph glyph-name="uni042F" unicode="&#x42f;" horiz-adv-x="236" 
d="M75 440q-7 4 -11.5 6.5t-9.5 4.5q-16 10 -27 23.5t-16 33.5q-10 43 1 90q6 25 22.5 40.5t40.5 22.5q11 3 20.5 7.5t20.5 9.5q22 10 49 12q14 2 19 -5t5 -21q0 -29 0.5 -59t-0.5 -59q0 -29 -1 -57l-2 -56q-1 -17 -1.5 -33t-1.5 -32v-131q0 -24 0.5 -48t1.5 -48
q1 -30 1.5 -60.5t1.5 -60.5v-9q-3 -21 -20 -19q-9 2 -14.5 9t-4.5 15q0 3 2 9q5 22 5.5 44.5t-1.5 45.5q-2 20 -3 40.5t-2 40.5v103.5t-1 103.5v11q-2 10 -12 9q-40 -3 -64 -31q-12 -14 -20 -29t-9 -34q-1 -47 -2 -93.5t-3 -93.5q-2 -29 -1 -57.5t6 -57.5q1 -8 -4 -19
q-7 -12 -19 -8q-10 4 -13 13q-2 5 -2 11.5v13.5q0 46 -1 91.5t0 92.5q0 61 6 121q2 24 14 44t30 36q5 4 9.5 8t10.5 9zM154 513v57.5t-1 57.5q0 2 0.5 4.5t-0.5 4.5q0 11 -5.5 14t-13.5 -3q-19 -13 -44 -18q-25 -3 -35 -22q-13 -25 -13.5 -50.5t7.5 -51.5q5 -14 16 -22
q15 -11 32 -15t35 -6q11 -1 15 4.5t6 16.5q1 8 1 14.5v14.5z" />
    <glyph glyph-name="uni0414" unicode="&#x414;" horiz-adv-x="320" 
d="M229 352l6 -177q1 -22 0.5 -43.5t-0.5 -43.5v-16.5t1 -16.5q1 -14 4 -16.5t17 -5.5h5q8 -2 13 -8t5 -14q-1 -7 -6.5 -12.5t-13.5 -6.5q-5 0 -9.5 0.5t-9.5 0.5q-52 3 -103.5 7.5t-104.5 1.5q0 -1 -2 -1q-23 0 -25 16q-1 16 21 19q4 1 7 1t7 1q12 0 14 13q1 16 2 31.5
t1 31.5q-1 38 -2.5 75t-2.5 75q-2 60 -3.5 118.5t-3.5 118.5q-1 38 9.5 73t35.5 65q12 15 28 25t34 17q20 7 35.5 0.5t29.5 -18.5q4 -2 5.5 -8t-0.5 -11q-9 -54 2 -109q6 -32 5.5 -64t-0.5 -64v-55h-1zM187 652q-26 -3 -44.5 -14.5t-32.5 -30.5q-19 -25 -24.5 -53.5
t-5.5 -58.5l3 -180l2 -84t2 -85q1 -22 1 -43.5t1 -43.5q1 -13 4 -16t15 -5q17 -2 32.5 -3t32.5 -2q20 -2 24 2t5 23v14q0 62 -1 123t-5 122q-1 22 -0.5 43.5t0.5 44.5v66.5t-6 66.5q-5 26 -5 51.5t3 51.5q0 2 -0.5 4t-0.5 7z" />
    <glyph glyph-name="uni0416" unicode="&#x416;" horiz-adv-x="362" 
d="M158 517q17 12 31 21t26 19q21 17 24 48q1 11 0.5 22t1.5 22q0 8 1 15.5t3 14.5q3 14 20 12q13 0 15 -17q1 -25 -0.5 -49.5t-9.5 -48.5q-11 -35 -46 -57q-9 -5 -18 -11.5t-18 -12.5q3 -10 9.5 -14t11.5 -8q8 -6 15 -11t14 -11q26 -22 34 -52q9 -30 14.5 -60t5.5 -62
q-1 -27 2.5 -53.5t5.5 -53.5q2 -37 3 -74l2 -74q1 -14 -10.5 -21t-23.5 -2q-6 3 -9.5 9.5t0.5 13.5q5 11 5 22v22q0 41 -2.5 81t-7.5 81q-1 6 -1.5 12t-0.5 13q2 31 -3.5 61t-12.5 61q-8 30 -26.5 48t-45.5 30q-5 -7 -6 -14.5t-1 -14.5q2 -35 0 -70t3 -70q3 -27 2.5 -54.5
t-0.5 -55.5q0 -7 -1 -11q-3 -19 -21 -16q-22 2 -19 22q6 31 4.5 61.5t-3.5 61.5q-2 32 -1.5 63.5t-0.5 63.5v13.5t-1 14.5q-4 -2 -6 -2t-4 -1q-28 -27 -45 -59t-15 -72q1 -14 1.5 -27.5t-0.5 -27.5q-2 -44 -3.5 -87t-3.5 -86q-1 -13 1 -25l4 -24q5 -29 -14 -33
q-23 -3 -25 29q-2 38 -2.5 74.5t4.5 74.5q4 29 3 58.5t-3 59.5q-5 87 55 151l14.5 14.5t16.5 15.5q-4 3 -7 5.5t-6 4.5q-9 7 -18.5 12.5t-17.5 13.5q-20 17 -32 38.5t-12 49.5q1 15 1 30v31q0 5 2 13q3 14 17 16q7 1 12 -3.5t7 -12.5q2 -6 2 -11.5v-10.5v-56q0 -33 25 -52
q10 -8 19 -16.5t23 -10.5q4 8 3.5 15t-0.5 15q0 9 -0.5 18.5t-0.5 19.5q0 21 17 21q8 1 13.5 -4t7.5 -14q2 -11 2 -22t1 -22q1 -6 0.5 -13t-0.5 -18z" />
    <glyph glyph-name="uni0425" unicode="&#x425;" horiz-adv-x="264" 
d="M115 498q15 16 26.5 33t16.5 40q5 25 9 49t5 50q0 7 1 14t3 14q3 14 17 14q13 -2 17 -14q2 -10 2 -17q-1 -32 -4 -63t-10 -62q-7 -29 -28 -53q-6 -7 -12.5 -14t-13.5 -15l9 -12q22 -26 30 -56.5t10 -63.5q0 -6 -0.5 -12t1.5 -11q5 -24 7 -48t2 -49q0 -27 1 -54.5t2 -54.5
q1 -16 2 -31.5t2 -31.5q1 -8 1.5 -16t-0.5 -16q-2 -19 -18 -19q-8 0 -14.5 5t-8.5 13v3q-1 24 -1 48.5t-1 48.5q0 5 0.5 10t0.5 10q-2 30 -3 59.5t-3 58.5q-4 35 -9 70l-10 70q-2 11 -6.5 20.5t-11.5 17.5q-8 8 -12.5 8.5t-11.5 -6.5q-10 -12 -17.5 -24.5t-12.5 -27.5
q-12 -43 -16.5 -86t-0.5 -88q3 -29 2 -58.5t-3 -58.5q-1 -16 -0.5 -30.5t5.5 -29.5q9 -23 -7 -29q-9 -2 -19.5 2.5t-14.5 13.5q-3 7 -3 17v28.5t2 28.5q4 31 3.5 61.5t-3.5 61.5q-3 45 0.5 89t17.5 88q6 18 16 33.5t22 29.5q8 11 7.5 14t-10.5 11q-23 19 -37 42.5t-22 51.5
q-2 10 -2 17v39t1 39q0 22 16 23q10 2 17 -4.5t8 -17.5q2 -17 1.5 -33t-1.5 -33q-1 -37 18 -68q15 -25 46 -39z" />
    <glyph glyph-name="uni0424" unicode="&#x424;" horiz-adv-x="333" 
d="M116 107q0 12 0.5 24t0.5 24q2 16 -13 17q-26 6 -49 21q-21 14 -29 34q-18 37 -17 76q0 14 1 28t3 28q0 5 0.5 10t0.5 10q0 47 -0.5 92.5t1.5 92.5q1 28 11.5 52t30.5 44q10 11 25 18.5t31.5 10.5t33 1.5t30.5 -7.5q12 -6 23.5 -13t21.5 -15q17 -13 24.5 -30.5
t11.5 -37.5q4 -19 5.5 -38t3.5 -38q2 -16 3 -32t1 -32q-1 -42 2.5 -84.5t-1.5 -84.5q-1 -5 -0.5 -9.5t1.5 -9.5q1 -15 -3 -28t-10 -26q-15 -29 -46 -34q-12 -2 -24 -2.5t-24 -1.5q-12 0 -12 -12q-1 -26 -1.5 -50.5t-0.5 -50.5q0 -5 1 -8.5t2 -7.5l2 -6t2 -5q1 -10 -5 -18
t-15 -9q-7 -1 -12.5 4.5t-6.5 15.5q-2 22 -3 43.5t-3 43.5h2zM157 647q-2 -8 -2 -11q2 -36 4 -71.5t2 -71.5q0 -25 -2.5 -50t-3.5 -51q-1 -35 -0.5 -70t0.5 -70v-37q0 -8 6 -12q6 -3 15 -3.5t19 1.5t18 6t12 10q10 14 11.5 30t-0.5 32q-11 11 -8.5 22t5.5 23q2 5 2 10.5
v11.5q3 51 -1 102.5t-7 102.5q0 13 -5 30q-6 26 -21 43.5t-44 22.5zM117 645q-14 -3 -22 -6t-14 -7.5t-10 -11t-9 -17.5q-11 -26 -12 -52q-4 -60 -1 -119t-4 -119q-2 -11 0 -20q2 -12 4.5 -24.5t6.5 -24.5q6 -16 18.5 -24t28.5 -12q13 -3 16 11q1 8 1 17v17q0 32 -1 63t0 63
q0 22 2.5 43.5t2.5 43.5q1 33 0.5 66.5t-2.5 67.5q0 11 -1.5 22.5t-3.5 22.5z" />
    <glyph glyph-name="uni0423" unicode="&#x423;" horiz-adv-x="250" 
d="M160 159q-2 32 -4.5 68t-5.5 74q-1 12 -0.5 24t-0.5 25q0 8 -0.5 16.5t-0.5 17.5q0 15 -6.5 25t-23.5 12q-8 1 -16 4t-16 5q-25 10 -41 28q-38 46 -38 102v106v14q3 15 17 15q19 2 19 -16q1 -16 1.5 -31.5t-1.5 -31.5q-3 -50 10 -95q14 -58 72 -67q13 -2 17.5 1.5
t4.5 15.5q1 31 0.5 61.5t-1.5 61.5v91v4t2 4l6.5 6.5t7.5 4.5q9 0 17 -8q5 -8 5 -19v-125q1 -60 1 -119t1 -119q1 -35 3.5 -68.5t3.5 -68.5q0 -23 -1.5 -45t-1.5 -45q-1 -12 -0.5 -24t0.5 -24q0 -2 1 -4.5t1 -4.5q3 -27 -23 -27q-15 -1 -30 -1h-30q-18 0 -36.5 -0.5
t-36.5 -0.5h-8t-6 2q-4 3 -7 7t-4 8q0 4 3 9t7 7q12 6 27 6q15 1 30 0.5t29 -1.5h29q15 0 16 16q2 24 4 49t4 55z" />
    <glyph glyph-name="uni0401" unicode="&#x401;" horiz-adv-x="250" 
d="M12 175q0 17 0.5 34.5t-0.5 34.5q-2 54 -3.5 107t-2.5 107q-1 31 0.5 61.5t4.5 61.5q2 26 15.5 47.5t32.5 39.5q2 2 4.5 3.5t4.5 2.5q23 11 46 17.5t49 1.5h6q17 -5 17 -18q-1 -12 -21 -14h-20t-20 -2q-31 -6 -49 -24.5t-25 -47.5q-4 -17 -5 -33t-3 -33q-1 -9 2 -12
t12 -3q12 1 24.5 1.5t24.5 2.5q2 0 4 0.5t4 0.5q19 0 21 -18q1 -8 -3.5 -14t-12.5 -8q-5 -1 -9.5 -1h-9.5h-44q-14 0 -14 -14v-18t1 -18q1 -18 2 -36.5t2 -37.5q1 -17 2 -35t1 -36q0 -25 -1 -49.5t-1 -49.5q0 -30 1 -60t3 -60q1 -11 3.5 -13.5t12.5 -3.5h39t38 -1
q10 0 19.5 -1t18.5 -3q12 -2 13 -12q1 -13 -11 -18q-12 -4 -29 -4q-29 0 -56.5 1t-55.5 2q-18 1 -24 7t-7 25v140h-1zM102 744q-1 -8 -8.5 -15t-15.5 -7q-12 1 -20 9.5t-7 19.5q2 18 23 18q11 0 19.5 -8t8.5 -17zM143 729q-11 0 -18.5 6.5t-6.5 16.5q0 8 7.5 15t15.5 7
q10 1 19 -9t8 -20q-1 -8 -8 -12t-17 -4z" />
    <glyph glyph-name="uni0419" unicode="&#x419;" 
d="M224 658v-54v-36l-3 -66q0 -7 -1 -13t-1 -12q-2 -29 -4 -56.5t-4 -56.5q-1 -12 0 -23.5t1 -23.5q1 -13 1 -25v-25q-1 -23 -1 -46.5t-2 -46.5q-2 -20 -3.5 -40t-4.5 -40q-2 -12 -2.5 -23.5t1.5 -23.5q2 -8 2 -15v-15q0 -15 -14 -18q-8 -1 -14 3t-6 12q-2 17 -3.5 33
t0.5 33q7 62 10.5 123.5t-0.5 124.5q-1 17 0.5 33t2.5 33q2 24 3 48t-1 49q-4 -9 -7 -18t-7 -17q-8 -21 -16.5 -41.5t-16.5 -41.5q-17 -44 -29.5 -89t-22.5 -91q-6 -28 -12.5 -55t-13.5 -55q-4 -16 -6.5 -32t-5.5 -33q-1 -7 -4 -11.5t-11 -4.5q-16 0 -17 18q-2 21 -2.5 42.5
t-1.5 42.5v199q0 29 -1.5 58t-0.5 58q2 57 5 113t5 113q1 9 3 18l4 18q3 14 19 12q6 0 9.5 -4.5t4.5 -9.5q2 -5 1.5 -9.5t-1.5 -9.5q-1 -10 -2.5 -19t-2.5 -19q-2 -36 -3.5 -72t-3.5 -72q-2 -27 -2.5 -54t-1.5 -53q0 -15 1 -29.5t1 -28.5v-47.5t-1 -46.5v-25.5t-1 -28.5
q11 40 21 76.5t20 72.5q13 50 32 97t36 95q4 11 7 21t7 21q3 9 5.5 19t7.5 17q9 11 10 22t1 22v29.5t2 28.5q0 20 18 19q17 0 17 -20v-28zM110 712q-13 -1 -20.5 10t-2.5 24q3 8 10 12.5t15 6t16 -1t13 -8.5q4 -5 4 -13q-2 -11 -13 -20.5t-22 -9.5z" />
    <glyph glyph-name="uni042E" unicode="&#x42e;" horiz-adv-x="389" 
d="M25 283q0 38 0.5 74.5t-0.5 73.5q-2 31 -4.5 62t-4.5 62q-1 10 -1 20t-1 20q-1 18 -2 36.5t-3 36.5q0 24 13 25q19 4 21 -21q2 -24 3.5 -48t3.5 -49q1 -14 2 -21.5t5 -11t11.5 -4.5t21.5 -1q16 1 21 5t8 21q3 13 3 28q5 38 30 63.5t54 33.5t50 -11q27 -24 38 -53
q8 -23 13.5 -46t4.5 -48q-2 -47 1.5 -93t7.5 -94q2 -14 1.5 -28t0.5 -28q4 -63 1 -124.5t-2 -124.5q1 -20 -9.5 -31t-29.5 -12q-24 -2 -48 -2.5t-48 -1.5q-13 0 -25 3q-16 3 -19.5 7t-4.5 21q-1 20 -1.5 40.5t-2.5 41.5q-2 38 -4.5 77t-4.5 78q-2 40 -2 79.5t-1 79.5v62
q-1 13 -4 16.5t-15 7.5q-3 1 -6 1t-5 1q-23 3 -29.5 -2t-5.5 -27l3 -156q0 -14 0.5 -28.5t-0.5 -28.5q-3 -39 -2 -78t3 -77q2 -21 2 -41.5t8 -40.5q4 -9 -0.5 -16t-14.5 -9q-18 -5 -23 18q0 2 -0.5 4t-0.5 4q-2 59 -3 116.5t-3 116.5v22h-1zM158 351h1q0 -28 -0.5 -55.5
t0.5 -54.5q2 -48 5 -94t6 -93q0 -9 1 -14q2 -15 14 -15q19 0 37 -1t37 1q17 2 21.5 7t6.5 23q1 10 1.5 19t0.5 18q1 23 1 46.5v46.5q1 14 1.5 28.5t-0.5 28.5q-1 23 -1.5 45t-2.5 45q-1 9 -1 17.5t-1 16.5q-5 39 -7.5 78t-2.5 78q0 52 -19 99q-6 13 -15 19.5t-18.5 7.5
t-19.5 -2.5t-17 -10.5q-11 -11 -17.5 -23t-8.5 -26q-2 -19 -4.5 -37.5t0.5 -38.5q2 -8 2 -15.5v-15.5v-128z" />
    <glyph glyph-name="uni0412" unicode="&#x412;" horiz-adv-x="263" 
d="M120 484q5 -4 8.5 -6.5t6.5 -4.5q17 -9 26.5 -22.5t17.5 -30.5q16 -33 20.5 -67.5t4.5 -69.5q0 -53 -0.5 -104.5t0.5 -104.5q0 -14 1.5 -28t3.5 -28q3 -35 -29 -29q-11 2 -22.5 5t-22.5 5q-8 2 -14.5 2.5t-14.5 1.5h-68q-21 0 -22 21q-1 7 -0.5 13.5t0.5 13.5q0 34 -1 67
t-1 66v78.5t1 78.5q0 9 -0.5 18t-0.5 17v35q1 11 1.5 20.5t0.5 20.5q0 20 -0.5 39t-0.5 39q1 35 -1.5 70t-7.5 70q-3 22 16 22q76 2 131 -42l3 -3l3 -3q10 -13 15 -31t5 -36.5t-4.5 -36.5t-14.5 -31q-4 -5 -10 -9t-11 -7q-4 -3 -8.5 -4.5t-10.5 -4.5zM45 256h-1q1 -48 1 -95
t1 -95v-11q3 -20 23 -21q6 -1 12 -0.5t12 -0.5q13 -1 25.5 -1.5t25.5 -2.5q17 -2 22 2t7 21q2 6 0 13q0 23 -1 46t-1 46v77.5t-1 77.5q0 26 -6.5 51.5t-17.5 50.5t-35 36q-7 3 -13.5 5.5t-13.5 4.5q-25 8 -31 4t-6 -30v-119q0 -15 -0.5 -29.5t-1.5 -29.5zM147 573
q-2 10 -3.5 19.5t-4.5 19.5q-2 5 -5.5 10.5t-8.5 8.5q-14 11 -31 17t-34 8q-11 2 -14.5 -2t-2.5 -15q0 -14 1 -28l2 -28q1 -15 1 -30t1 -30q1 -11 4.5 -14t14.5 -1q26 5 49 12q19 4 24 23q2 8 3.5 15t3.5 15z" />
    <glyph glyph-name="uni0421" unicode="&#x421;" horiz-adv-x="227" 
d="M84 2q-12 0 -23 -1t-22 -8q-14 -8 -23 -3t-11 20q-2 26 -3.5 50.5t3.5 50.5q2 12 2.5 24t-0.5 24q-2 39 -1 78t5 79q2 18 0 36l-4 36q-1 29 -3 57.5t-1 57.5t7.5 56t17.5 53q12 30 35 46.5t53 24.5q13 4 26 5t27 2q23 0 22 -25q-1 -17 -1 -33.5t-1 -33.5q0 -3 1 -6t0 -5
q-2 -15 -15 -18q-6 -2 -12 2.5t-8 12.5q-2 5 -2 11v11v20.5t-1 19.5q0 13 -13 10q-28 -6 -49 -19.5t-32 -41.5q-14 -35 -18.5 -70t-2.5 -71q1 -15 1.5 -30.5t1.5 -30.5l3 -54q0 -5 0.5 -11t-0.5 -11q-2 -24 -3 -47.5t-2 -47.5q-1 -25 -0.5 -49.5t-0.5 -48.5
q0 -17 -0.5 -32.5t-1.5 -32.5q0 -14 4 -17.5t17 -4.5q19 -2 37 -2.5t36 -2.5q17 -2 23 3.5t6 22.5q0 27 -1 54.5t-2 54.5v8.5t1 8.5q0 13 14 15q12 0 18 -10q2 -6 3 -8q1 -20 2 -39.5t-1 -39.5q-2 -18 0 -35t5 -34q0 -2 2 -8q4 -27 -22 -27q-14 -1 -28 -0.5t-28 1.5
q0 1 -14 1.5t-23 1.5z" />
    <glyph glyph-name="uni042D" unicode="&#x42d;" horiz-adv-x="292" 
d="M229 207q-3 -42 -6 -76t-5 -67q0 -9 1 -18t0 -18q0 -41 -42 -37q-14 2 -27.5 4t-27.5 4q-21 3 -42.5 5t-42.5 4q-16 2 -29 9q-6 3 -5 10.5t8 9.5q5 2 10.5 2h10.5l62 -6l62 -6q17 -2 23 2.5t8 22.5q2 14 2.5 29t1.5 29q2 39 3.5 77.5t2.5 77.5q0 38 -1.5 76t-1.5 76
q0 18 -18 21q-9 2 -18.5 2t-19.5 1q-8 1 -16.5 1t-16.5 1q-16 2 -16 16q-1 6 4.5 10t14.5 4q14 0 27 -1l26 -2q20 -2 25.5 3t3.5 26q-1 17 -3.5 33t-7.5 32q-19 56 -73 79q-13 5 -27.5 8t-28.5 7q-7 2 -14 4.5t-14 5.5q-2 2 -4 6.5t-1 7.5t4.5 5.5t6.5 4.5q5 2 11 0
q18 -5 35.5 -9t34.5 -9q15 -4 26.5 -11.5t22.5 -18.5q26 -27 42.5 -59t19.5 -70q5 -53 7.5 -105t0.5 -106q0 -27 0.5 -52.5t0.5 -44.5z" />
    <glyph glyph-name="uni0417" unicode="&#x417;" horiz-adv-x="264" 
d="M29 699q11 -6 21 -6h21q17 1 33 0t32 -4q19 -3 34 -14.5t23 -27t8 -35t-10 -39.5q-5 -10 -11 -18.5t-12 -16.5q-3 -5 -6.5 -8.5t-6.5 -8.5q-5 -8 -4 -12t9 -10q11 -8 20.5 -18.5t13.5 -24.5q4 -13 5.5 -26.5t2.5 -27.5q2 -16 2 -31.5t1 -31.5q0 -17 0.5 -34t-1.5 -34
q-2 -30 -2 -59.5v-59.5q-1 -14 -0.5 -27.5t-0.5 -27.5q-1 -18 -1.5 -36t-1.5 -35q-2 -22 -10.5 -29t-30.5 -5q-14 1 -28.5 2.5t-28.5 3.5q-17 1 -32.5 1t-31.5 1q-6 1 -12 1.5t-11 2.5t-8 5.5t-1 8.5q3 7 11 11q4 2 8.5 1.5t9.5 -0.5q26 -2 52.5 -3t53.5 -3q16 -1 19 2.5
t7 20.5q8 38 6 76.5t0 76.5q1 18 2 36.5t1 36.5q0 20 -0.5 38.5t-1.5 38.5q0 11 -0.5 23t-1.5 24q-1 8 -0.5 16t-0.5 16q-6 47 -55 54l-14 2t-14 3q-8 3 -8.5 10t7.5 12q2 2 5.5 3t6.5 3q29 8 44.5 29t24.5 47q5 12 2.5 24.5t-9.5 23.5q-12 23 -35 24q-19 2 -37 3.5
t-36 -4.5q-6 -2 -13 -1t-13 3q-15 4 -7 18q2 3 4.5 7t6.5 9z" />
    <glyph glyph-name="one" unicode="1" horiz-adv-x="223" 
d="M5 565q-2 41 19 75q9 15 21.5 24.5t27.5 15.5q12 4 24 7t25 6q14 3 19.5 -0.5t7.5 -17.5q9 -62 6 -125q-2 -38 -1.5 -74.5t0.5 -74.5q0 -35 1.5 -71t1.5 -71q1 -31 0 -61.5t-2 -61.5v-52t-1 -52q0 -5 0.5 -9.5t-1.5 -9.5q-2 -7 -8 -10.5t-11 -2.5q-12 3 -12 19
q1 48 1.5 94t2.5 94q0 20 1 39t2 39v11q-1 61 -1.5 122t-1.5 122q-1 24 -1.5 48.5t-0.5 49.5v9.5t-2 9.5q-2 11 -14 11q-28 -3 -48.5 -23t-22.5 -46q-2 -11 -1.5 -23t-0.5 -24v-13t-1 -12q-1 -5 -3 -10t-8 -4q-9 2 -15 11q-2 3 -2.5 7.5t-0.5 8.5v25z" />
    <glyph glyph-name="two" unicode="2" horiz-adv-x="277" 
d="M217 30q1 -13 -3.5 -19.5t-17.5 -9.5q-8 -2 -16 -1.5t-16 -1.5q-32 -7 -63 -5.5t-62 5.5q-18 2 -23.5 9t-7.5 25q-1 5 -1 8.5v7.5q3 39 2 77t-3 76q-2 26 0.5 51t1.5 51q0 16 1.5 31t3.5 31q3 20 11.5 37.5t25.5 30.5q13 11 26.5 21.5t26.5 21.5q17 14 33.5 29t33.5 31
q6 5 10 16q9 21 8 42t-9 41q-6 17 -20.5 24.5t-32.5 4.5q-1 0 -2 -1q-38 -6 -55 -23.5t-26 -58.5q-1 -4 -1 -8t-2 -8q-5 -9 -13 -12q-5 -2 -10 3.5t-7 11.5v8q5 23 12 43.5t21 39.5q8 8 16.5 14.5t19.5 8.5q13 2 25.5 4.5t25.5 4.5q24 3 47 -10.5t32 -36.5q16 -40 6 -86
q-3 -16 -11.5 -27.5t-19.5 -22.5q-19 -20 -40 -36t-42 -33q-2 -2 -3 -2.5t-3 -2.5q-27 -18 -40.5 -43.5t-15.5 -57.5q-1 -14 -0.5 -26.5t0.5 -25.5q-1 -57 -1.5 -112.5t-1.5 -111.5q0 -16 6.5 -23.5t21.5 -10.5q23 -4 45 -3.5t45 4.5q18 3 22 17l4 12t3 12q1 20 0.5 41
t0.5 41q0 11 -0.5 20.5t0.5 20.5q0 10 5 18q2 2 6.5 3.5t7.5 1.5q5 -1 9 -9q2 -3 2 -11q0 -20 0.5 -40.5t1.5 -41.5l-0.5 -8.5t-0.5 -21t0.5 -26t0.5 -23.5z" />
    <glyph glyph-name="zero" unicode="0" 
d="M15 513l-2 38t-1 38q-1 17 -1 33v33q0 6 2 16q3 11 8 15.5t16 3.5q16 -1 32 -2.5t30 -6.5q19 -7 36.5 -16t34.5 -19q22 -12 30 -38q8 -22 13.5 -43.5t4.5 -44.5q-1 -2 -0.5 -4t0.5 -4q0 -87 0.5 -172t1.5 -172v-124q0 -17 -15 -31t-32 -14q-3 0 -6 0.5t-7 0.5
q-38 8 -68 28.5t-54 49.5q-14 17 -19 36.5t-7 39.5q-2 18 -3.5 36t-1.5 35q-1 17 0.5 33t2.5 33q1 28 1 55.5t1 55.5v74v37h3zM176 425h1q0 23 0.5 46t0.5 46q0 19 -5 42q-5 20 -10 33t-12.5 22t-19.5 15.5t-31 14.5q-9 3 -17.5 6.5t-17.5 5.5q-16 3 -16 -15q-1 -5 1 -15
q1 -11 2.5 -21t1.5 -21v-34.5t-1 -34.5q0 -43 -0.5 -85.5t-1.5 -86.5q0 -11 0.5 -21t-1.5 -21q-4 -22 -3 -43.5t2 -43.5q2 -18 3 -36t3 -35q3 -22 12 -40t29 -31q9 -5 17.5 -12t17.5 -12q16 -8 32 -11q14 -3 16 13q3 27 3 55q1 20 0.5 39.5t-1.5 39.5v103q-1 35 -2 69t-3 69
z" />
    <glyph glyph-name="three" unicode="3" 
d="M198 544q1 -14 1 -27t-8 -25q-6 -8 -13 -15.5t-15 -15.5q-9 -9 -9.5 -13t10.5 -12q17 -14 25.5 -32t11.5 -41q4 -34 8.5 -67.5t2.5 -68.5q-1 -22 -3 -43.5t-3 -43.5q-2 -27 -4.5 -54.5t2.5 -55.5q6 -30 -25 -32q-21 -2 -39 3q-14 4 -26.5 4.5t-25.5 -1.5q-27 -1 -53 0
q-10 1 -13.5 4.5t-3.5 14.5q-1 32 -2 65t-6 66q-3 14 11 18q13 2 18 -12q2 -3 2 -6.5v-6.5q2 -22 3.5 -43.5t3.5 -42.5v-14q1 -8 4.5 -11t12.5 -5h11q35 3 68 -4q15 -3 21 2t7 21q2 30 3.5 60.5t3.5 60.5q1 8 2 17t2 17q1 4 1.5 7.5t0.5 8.5q-3 27 -5.5 54.5t-5.5 55.5
q-1 10 -2.5 19.5t-3.5 19.5q-9 54 -65 60q-9 0 -13 1q-5 2 -10.5 5t-9.5 7q-8 6 -5.5 13.5t12.5 9.5q7 1 16 0q27 -3 49 14.5t23 44.5q3 31 -2 66q-8 47 -55 56q-7 2 -13.5 3t-12.5 2q-25 3 -26 -21q-2 -11 -1.5 -22.5t0.5 -22.5q0 -19 -12 -20q-7 0 -12.5 5.5t-5.5 13.5
q-1 19 -1.5 38t0.5 38q1 16 8 20.5t23 2.5q9 -2 17.5 -2t17.5 -1q23 -3 44 -11t37 -28q13 -16 20.5 -33.5t7.5 -38.5v-13t-1 -13z" />
    <glyph glyph-name="four" unicode="4" horiz-adv-x="236" 
d="M9 440q1 14 1.5 29t0.5 29q0 27 6.5 53t15.5 51q8 21 22 37t30 30q5 5 15 7q13 4 25 7.5t25 7.5q5 1 8.5 1h8.5q16 -1 16 -18q0 -5 -0.5 -8.5t-0.5 -8.5q-1 -29 -1 -59t-1 -59q-1 -23 -2 -45.5t-1 -45.5v-55.5t2 -54.5q4 -52 2 -103.5t-3 -102.5q-1 -26 -0.5 -50.5
t0.5 -49.5v-10.5t-2 -10.5q-3 -9 -12 -13q-13 -5 -18 9q-4 7 -2 16q3 36 3 72.5t1 72.5q1 12 0.5 23.5t-0.5 23.5q0 14 -3 17.5t-17 4.5q-22 1 -44 1.5t-44 0.5q-20 1 -25 5.5t-7 24.5q-2 36 -3 72t3 71q1 8 1 14.5v13.5zM146 651q-15 -1 -21.5 -2t-11.5 -6q-11 -11 -22 -21
t-18 -23q-11 -21 -18 -43.5t-9 -46.5q-2 -38 -3.5 -75.5t-3.5 -75.5q-1 -11 -0.5 -21t0.5 -21q0 -21 14 -37q3 -3 6.5 -5.5t7.5 -2.5q34 -2 69 0q14 1 14 17v14q-1 43 -3 85.5t0 85.5q2 34 1.5 67.5t-0.5 67.5q0 11 -0.5 21.5t-1.5 21.5z" />
    <glyph glyph-name="five" unicode="5" 
d="M209 177q0 -32 -0.5 -64t0.5 -64q1 -10 -2 -18.5t-8 -16.5q-4 -8 -11.5 -12.5t-15.5 -2.5q-17 5 -34.5 2t-34.5 -1q-19 2 -37 3.5t-36 3.5q-11 2 -15.5 6t-4.5 15q-2 32 -2.5 62.5t-1.5 62.5q0 9 3 18q3 13 16 12q12 -2 14 -15q0 -3 -0.5 -6.5t-0.5 -6.5q-5 -27 -2 -53
l6 -52q2 -16 15 -16q21 -2 42 -3.5t41 -0.5q26 0 27 28q1 19 1 37.5t1 38.5q1 42 2.5 82.5t1.5 82.5q0 32 -5.5 64t-12.5 64q-9 41 -48 51q-15 4 -29.5 8t-30.5 8q-13 2 -18 7.5t-6 18.5v32q-2 28 -3.5 55.5t-3.5 55.5v11q2 12 8 15.5t19 1.5q21 -3 41.5 -6t41.5 -5
q10 -1 19.5 -0.5t18.5 1.5q10 2 17.5 -1t15.5 -8q9 -7 0 -16q-7 -9 -23 -7q-27 2 -54 3.5t-53 3.5q-11 1 -14.5 -1.5t-4.5 -13.5q0 -6 0.5 -11.5t0.5 -10.5q2 -17 3 -33.5t2 -33.5q1 -18 4 -22t21 -10q8 -2 15.5 -4.5t15.5 -5.5q9 -3 17.5 -6.5t17.5 -7.5q36 -16 47 -56
q10 -35 16 -70t6 -71q-1 -31 -2 -61.5t-2 -60.5h-1z" />
    <glyph glyph-name="six" unicode="6" 
d="M115 0q-12 0 -23.5 0.5t-22.5 0.5q-7 0 -13.5 -0.5t-13.5 -1.5q-16 -4 -25.5 3.5t-6.5 24.5q4 20 3 40t-3 40q-3 35 -0.5 70t1.5 70v43.5t-1 42.5v89q0 29 -1.5 57t-0.5 56q1 18 4.5 37.5t12.5 37.5t23.5 33t36.5 23q17 6 34.5 12.5t34.5 11.5q10 3 20 4t20 -4q5 -2 9 -5
t8 -7q3 -4 1 -9t-7 -7q-4 -1 -11 -1q-31 3 -57 -8t-51 -26q-12 -7 -19.5 -18.5t-12.5 -24.5q-8 -20 -10 -40t0 -41q1 -13 12 -16q10 -2 19 -5t18 -4q19 -2 35 -10t31 -18q11 -8 18.5 -19.5t12.5 -24.5q21 -60 21 -124q-1 -30 -1 -59.5t-1 -59.5q0 -17 -0.5 -35t-0.5 -35
q0 -13 0.5 -25.5t1.5 -25.5q1 -17 -13 -31t-31 -13q-13 1 -25.5 1t-25.5 1zM177 217h2q-1 26 -1 52.5t-3 52.5q-2 21 -7.5 41t-11.5 40q-5 16 -16 24.5t-27 13.5q-13 3 -25.5 6.5t-26.5 5.5q-9 2 -12.5 -0.5t-5.5 -12.5q-1 -5 -1 -9.5v-9.5q0 -20 0.5 -41t0.5 -42
q-1 -29 -2 -59t-1 -59q-1 -38 -0.5 -75.5t0.5 -75.5q0 -6 2 -16q3 -11 5.5 -13.5t13.5 -5.5q24 -6 48 -5t48 3q17 1 18 16q2 22 3 43t2 43q0 21 -1 42t-2 41z" />
    <glyph glyph-name="seven" unicode="7" horiz-adv-x="264" 
d="M91 654h-19.5t-20.5 1q-13 0 -13 -13v-19t1 -19q0 -7 1 -13t0 -13q0 -3 -2 -6.5t-4 -3.5q-8 -3 -15 2q-6 3 -8 13q-4 22 -6 43.5t0 44.5q2 16 18 16q10 1 19.5 0t20.5 -1q29 -2 58.5 -3.5t58.5 -2.5q18 -1 25 -6t9 -23q2 -14 2.5 -27.5t-0.5 -27.5q-2 -32 -17.5 -57.5
t-38.5 -45.5q-18 -16 -30 -31q-17 -20 -24 -44t-5 -50q4 -51 5.5 -101.5t-0.5 -101.5q-2 -29 -0.5 -56.5t1.5 -56.5q0 -11 0.5 -21t-0.5 -21q-2 -17 -19 -15t-15 18q5 24 2 48t-1 48q1 18 1.5 36t0.5 36q-1 33 -1.5 65.5t-1.5 65.5q-1 21 -0.5 42.5t-1.5 42.5q-2 31 11 55
t33 45q9 10 18.5 19.5l18.5 18.5q20 20 27 43.5t5 50.5q-1 10 -4 13t-12 4q-19 2 -38 4.5t-38 4.5q0 -1 -1 -1z" />
    <glyph glyph-name="eight" unicode="8" horiz-adv-x="291" 
d="M128 4q-16 0 -31.5 0.5t-31.5 1.5q-6 0 -12 -0.5t-12 -1.5q-29 -6 -30 24v28.5t1 29.5q1 35 1.5 70.5t-2.5 71.5q-2 29 -2.5 57t-0.5 56q0 14 2 29t4 29q4 23 25 42q9 8 18 15.5t18 15.5q9 9 -1 18q-6 5 -11.5 9t-10.5 9q-21 19 -27 43.5t-9 50.5q0 10 4 18q9 17 22 30.5
t31 21.5q8 4 16 7t16 5q17 4 32 0t29 -12q29 -15 39 -47q14 -39 2 -78q-5 -18 -18 -27q-8 -6 -16 -13l-16 -14q-9 -8 -9.5 -11.5t7.5 -12.5q7 -7 13.5 -14.5t11.5 -15.5q20 -28 28.5 -59.5t12.5 -64.5q2 -20 2 -40.5t1 -40.5q0 -20 -1 -39.5t0 -39.5q1 -27 3 -54t3 -54
q1 -7 0.5 -14t-1.5 -15q-1 -9 -5 -12.5t-13 -5.5q-5 -1 -13 -1q-17 1 -34.5 1.5t-34.5 0.5v3zM122 35v-2q11 -1 23 -1.5t24 -0.5q17 0 21.5 4.5t4.5 21.5q1 14 -0.5 28.5t-2.5 28.5q-1 15 -1.5 29.5t-0.5 28.5t1.5 29t0.5 29q0 25 -1.5 49.5t-3.5 50.5q-3 29 -14 55.5
t-27 51.5q-3 4 -7 7.5t-8 6.5q-12 10 -24 1q-8 -6 -15.5 -12t-15.5 -11q-32 -24 -34 -63q-2 -54 0 -108q0 -35 1 -71t2 -71q0 -14 -0.5 -27.5t-0.5 -27.5q0 -13 3.5 -16.5t16.5 -5.5q14 -2 28.5 -2.5t29.5 -1.5zM181 582q-2 10 -3 19.5t-5 18.5q-6 18 -20.5 25.5t-33.5 2.5
q-3 -1 -6.5 -1.5t-6.5 -1.5q-14 -1 -23.5 -8t-19.5 -15q-14 -9 -11 -28q3 -11 4 -22t3 -22q2 -18 15 -27q12 -9 19.5 -13t14 -4t14.5 4t20 12q2 2 3.5 2.5t3.5 2.5q16 9 23 23t9 32z" />
    <glyph glyph-name="nine" unicode="9" horiz-adv-x="264" 
d="M189 324q-2 -24 -5 -47.5t-4 -47.5q-1 -23 0 -45.5t2 -45.5v-81q1 -9 1.5 -18t2.5 -17q3 -24 -20 -24q-16 1 -32 0.5t-33 0.5q-20 2 -39 3.5t-39 3.5q-3 1 -6.5 2t-5.5 3t-4.5 6t-1.5 7q0 3 3.5 6.5t6.5 4.5q8 0 16 -1t16 -1q19 -1 37.5 -2t37.5 -1q14 0 18.5 5.5
t6.5 19.5q1 7 1.5 13.5t0.5 13.5q-4 69 -1 136.5t6 136.5q1 12 1 24.5t1 24.5q0 15 -5 20t-19 8q-17 3 -32.5 6t-29.5 11q-33 17 -48.5 44t-16.5 64v5q-2 47 23 76t64 40q17 5 34 7.5t35 4.5q11 0 25 -7q16 -7 6 -20q-4 -7 -5 -13.5t-1 -14.5q1 -22 1 -43.5t1 -43.5
q0 -18 0.5 -36t0.5 -37q1 -19 1 -37.5v-37.5q0 -10 -0.5 -23t-0.5 -25v-20v-8zM155 501q-1 31 -2 65t-3 69q0 5 -2 13q-3 10 -12 9q-37 -7 -65 -31q-12 -10 -18 -23t-9 -28q-7 -44 11.5 -72t60.5 -38q25 -6 31.5 0.5t7.5 35.5z" />
    <glyph glyph-name="hyphen" unicode="-" horiz-adv-x="172" 
d="M31 207q-5 1 -8.5 1t-7.5 1q-5 2 -9.5 5t-3.5 10q1 6 5.5 8t9.5 3q8 0 16 -0.5t16 0.5h25t25 1q22 2 22 -12q0 -16 -19 -18h-40h-12q-5 0 -10 0.5t-9 0.5z" />
    <glyph glyph-name="equal" unicode="=" horiz-adv-x="260" 
d="M30 390h-8t-7 2q-5 2 -9.5 5t-3.5 9t5.5 8t9.5 3q8 0 15.5 -0.5t15.5 0.5h27t26 1q22 2 22 -12q0 -7 -5.5 -12t-13.5 -5q-11 -1 -21.5 -0.5t-21.5 0.5h-12q-5 0 -10 0.5t-9 0.5zM95 345h8t7 -1q5 -2 9.5 -5t3.5 -9q-1 -7 -5.5 -9t-9.5 -2q-8 -1 -15.5 -0.5t-15.5 0.5
q-14 0 -27 -0.5t-27 -1.5q-21 0 -21 12q0 16 19 18h43q0 -1 11.5 -1t19.5 -1z" />
    <glyph glyph-name="parenleft" unicode="(" horiz-adv-x="208" 
d="M8 191q1 20 1.5 39t0.5 39q0 11 -1.5 23t-1.5 23q1 51 3.5 102t13.5 102q1 5 2 9t3 9q7 29 26.5 43.5t46.5 19.5q13 3 29 1q4 0 8 -3t4 -5q1 -4 -1 -8.5t-4 -7.5q-4 -3 -8.5 -4t-9.5 -1q-20 -1 -33 -11.5t-19 -28.5q-5 -16 -9 -31t-6 -32q-4 -42 -7.5 -83t-0.5 -84
q2 -28 0 -56t-2 -57q0 -33 0.5 -66t1.5 -66v-39t1 -39q1 -8 0.5 -16.5t7.5 -13.5q10 -6 21 -8t22 4t20 1q9 -6 10 -16t-8 -16q-12 -7 -25 -7q-16 1 -31 2.5t-31 3.5q-13 1 -18 14q-2 8 -2 13q-1 26 -1.5 51.5t-1.5 51.5q0 20 -1 41t-1 42q0 17 0.5 32.5t1.5 32.5h-1z" />
    <glyph glyph-name="parenright" unicode=")" horiz-adv-x="208" 
d="M151 241q-1 -32 -2 -65t-1 -66q-1 -36 -0.5 -72t0.5 -73q0 -7 -1 -13.5t-2 -14.5q-2 -20 -21 -23q-10 -2 -19.5 -1.5t-19.5 -0.5l-51 -3q-10 -2 -14 -1q-6 1 -10.5 3.5t-6.5 9.5q-1 6 2.5 11t11.5 7q12 3 24.5 4t25.5 3h6q23 -2 29 2.5t7 27.5q1 66 2 132.5t2 132.5
q1 48 0.5 95t-1.5 95q0 15 -2.5 30t-4.5 29q-5 29 -24 47.5t-41 34.5q-5 3 -9 5t-9 5t-7 7.5t1 9.5q3 3 8 6t9 2q8 -3 16.5 -7t16.5 -9q24 -18 47 -41q17 -16 24 -36.5t11 -42.5q6 -40 5 -76q0 -39 -1 -77.5t-2 -76.5h1z" />
    <glyph glyph-name="period" unicode="." horiz-adv-x="125" 
d="M32 49q13 -1 21.5 -4.5t13.5 -12.5t3 -19t-11 -15q-15 -11 -28.5 -6t-23.5 16q-6 7 -4.5 17t9.5 15q5 4 10.5 5.5t9.5 3.5z" />
    <glyph glyph-name="colon" unicode=":" horiz-adv-x="139" 
d="M45 369q11 -1 22.5 -12.5t11.5 -22.5q0 -6 -3.5 -12.5t-9 -11t-13 -7.5t-14.5 -2q-13 1 -22 11t-8 23q1 16 10.5 25.5t25.5 8.5zM48 0q-31 -1 -36 20q-5 23 17 32q10 4 22 6q22 3 30 -17q3 -8 0.5 -18t-10.5 -15q-6 -4 -13 -5.5t-10 -2.5z" />
    <glyph glyph-name="comma" unicode="," horiz-adv-x="139" 
d="M81 -6q-2 -17 -6.5 -32t-15.5 -29q-7 -7 -16 -7q-10 -1 -14.5 7t0.5 17q3 7 7 12.5t6 12.5q2 6 0.5 11.5t-9.5 7.5q-8 1 -16 8q-15 14 -5 34q11 18 31 14q8 -1 17 -5q14 -4 17 -19l2 -16z" />
    <glyph glyph-name="semicolon" unicode=";" horiz-adv-x="125" 
d="M73 37q-3 -16 -5.5 -32t-7.5 -32q-5 -14 -16.5 -20t-24.5 -10q-5 -2 -10 4t-3 11q2 7 5 10q2 2 4.5 4t4.5 5q17 19 -2 34q-11 10 -13 19t3 20q5 12 16 17.5t23 2.5q24 -6 26 -33zM44 356q15 1 25 -10t10 -28q0 -14 -11 -24.5t-27 -10.5q-14 0 -25.5 10t-11.5 24
q1 18 11.5 28.5t28.5 10.5z" />
    <glyph glyph-name="quotesingle" unicode="'" horiz-adv-x="833" 
 />
    <glyph glyph-name="slash" unicode="/" horiz-adv-x="169" 
d="M7 13q2 13 5 26t5 26q2 10 3.5 19t3.5 19q3 17 4.5 33t6.5 33q3 11 4 23t3 24q2 11 3 20.5t3 20.5q2 12 3 24t2 23q2 11 3 22t3 22t3.5 22.5t3.5 22.5l3 15q4 17 7.5 34t7.5 34q5 22 6.5 43.5t2.5 44.5q1 11 3 21t4 21q2 7 6 10t9 3q14 -2 16 -16q1 -2 0.5 -2.5
t-0.5 -2.5l-2 -18t-3 -18q0 -5 -0.5 -11t-1.5 -11q-1 -16 -2.5 -31.5t-6.5 -31.5q-3 -10 -4.5 -19.5t-3.5 -18.5q-3 -14 -7 -28.5t-7 -28.5q-2 -11 -2.5 -21t-2.5 -21q-1 -8 -2 -14.5t-2 -13.5q-1 -8 -1 -17t-2 -17q-1 -22 -6 -43q-3 -21 -6 -41.5t-6 -41.5q-2 -14 -4.5 -29
t-4.5 -29l-4 -18t-3 -18q-2 -8 -1.5 -15t1.5 -15q1 -10 -3 -16.5t-10 -13.5q-7 -7 -17 -2q-11 5 -10 17z" />
    <glyph glyph-name="backslash" unicode="\" horiz-adv-x="215" 
d="M20 625q14 0 19 -15q2 -8 4.5 -17t4.5 -17q2 -6 3.5 -11.5t3.5 -10.5q2 -13 4.5 -25.5t4.5 -24.5q2 -6 3 -11.5t3 -10.5q2 -11 3 -22t3 -22q3 -15 7 -29.5t7 -29.5q2 -11 4 -21t4 -21l24 -102l6 -24q3 -14 6 -27.5t6 -27.5t6 -27l6 -26q3 -12 5.5 -23.5t5.5 -22.5
q2 -6 3.5 -11.5t7.5 -10.5q3 -3 5.5 -7.5t1.5 -8.5q-1 -8 -10 -19q-2 -4 -6.5 -6.5t-10.5 0.5q-6 2 -8 6q-15 30 -18 62q-2 11 -5.5 22.5t-5.5 22.5q-3 11 -5.5 22t-4.5 22q-4 16 -7 31t-7 31q-3 12 -5.5 24t-5.5 24q-5 20 -9 38.5t-9 37.5q-3 14 -5.5 27.5t-5.5 27.5
q-3 12 -6 23.5t-5 22.5q-3 15 -5.5 30t-5.5 30q-2 11 -4.5 22t-4.5 22q-5 16 -9 31.5t-8 31.5q-2 8 2.5 14t12.5 6z" />
    <glyph glyph-name="plus" unicode="+" horiz-adv-x="194" 
d="M135 361q0 -3 -3 -5.5t-6 -3.5q-5 -2 -10.5 -2t-10.5 -1q-11 -1 -14.5 -4t-2.5 -15q0 -19 3 -37q1 -21 -9 -22q-6 -2 -12 3t-8 14q-2 12 -3.5 24.5t-3.5 24.5q-2 11 -4 13t-13 4q-7 1 -13.5 1.5t-12.5 2.5q-2 1 -4.5 4.5t-2.5 5.5t3 5t5 4q5 2 11 2h12q13 0 13 13
q1 6 1 12.5v13.5q2 10 4 15q4 7 11 6.5t10 -7.5q2 -6 3 -12.5t3 -12.5q1 -5 1 -9.5t1 -9.5q1 -12 15 -12q5 1 11 1h12q13 -2 14 -16z" />
    <glyph glyph-name="uni0410" unicode="&#x410;" 
d="M177 218q1 44 1.5 87t2.5 87v20q-1 9 -4 12.5t-12 5.5l-102 9q-15 1 -18.5 -3t-4.5 -19t-0.5 -29.5t0.5 -28.5q0 -26 0.5 -51t0.5 -51q2 -38 3 -76t3 -76q1 -22 2 -43l2 -42q0 -11 -5 -21q-2 -3 -6 -6t-7 -2q-4 1 -8 3.5t-6 6.5q-2 5 -2.5 11t-0.5 11q-2 63 -3 124
t-2 124q-1 34 -1 67.5v67.5q-1 14 -1.5 26.5t-0.5 25.5q-1 41 6 80t24 76q2 7 5 10q25 25 52.5 45t66.5 19q7 0 13.5 1.5t13.5 3.5q24 3 27 -21q0 -7 -1 -11q-7 -45 -6.5 -89.5t2.5 -89.5q2 -32 1 -63t-1 -63v-78q0 -11 0.5 -23t-1.5 -23q-5 -42 -4 -82t2 -81v-24.5
t-1 -25.5q-2 -21 -17 -21q-15 2 -18 22v13q1 47 2 93l2 92h1zM175 590q1 0 1 1q0 10 0.5 20t0.5 21q0 13 -4 17t-17 4h-9.5t-9.5 -2q-30 -11 -52.5 -30t-31.5 -54q-5 -18 -8 -36t-2 -37q0 -13 3 -16t15 -5q8 -1 15 -2t15 -1q17 -2 34.5 -3t34.5 -1q11 -1 14 2.5t4 14.5
q1 10 0 19q-1 23 -1.5 44.5t-1.5 43.5z" />
    <glyph glyph-name="uni041D" unicode="&#x41d;" horiz-adv-x="266" 
d="M209 434q-1 -26 -2 -52.5t-1 -52.5q0 -20 1.5 -39.5t1.5 -39.5q-1 -20 -3.5 -39.5t-3.5 -39.5t-1.5 -40.5t0.5 -40.5q0 -15 1.5 -29.5t3.5 -28.5v-11q-2 -9 -8.5 -15t-15.5 -4q-15 1 -15 23q1 17 1 33v33q0 24 -0.5 47.5t3.5 47.5q3 18 2.5 36.5t-0.5 36.5q0 13 -1 25.5
t-1 24.5q1 28 0 55.5t2 55.5q2 12 -1.5 15.5t-17.5 4.5q-7 1 -14 0.5t-15 0.5q-14 0 -28.5 0.5t-28.5 1.5q-11 0 -14.5 -2.5t-4.5 -13.5q-1 -26 -1.5 -52.5t0.5 -52.5q1 -39 1 -78t-5 -78q-1 -8 0 -15.5t1 -15.5q0 -15 -0.5 -30.5t0.5 -30.5q0 -10 1.5 -19.5t2.5 -19.5
q0 -5 0.5 -9t-0.5 -9q-2 -6 -10 -11t-13 -4q-15 2 -15 22v38t1 38q1 30 2 59.5t1 59.5q0 38 -0.5 76.5t-0.5 76.5v176q-1 26 -2 52.5t-3 53.5q0 5 -0.5 9t0.5 9q1 18 18 18q19 0 19 -18q1 -23 1.5 -46t1.5 -46q0 -20 -1 -41t-2 -41q0 -13 13 -16q25 -6 50 -6h50q9 0 12 3.5
t3 13.5q-1 39 -1.5 78t-1.5 77v11t1 11q2 12 14 14q14 3 19 -10q4 -7 4 -18q0 -56 0.5 -111t0.5 -110z" />
    <glyph glyph-name="uni0415" unicode="&#x415;" horiz-adv-x="250" 
d="M37 359q2 -49 3 -97l2 -96v-77q1 -7 1 -14t1 -14q1 -19 5.5 -22t22.5 -1q21 1 46 -2q12 -2 24 -5t25 0q3 1 7 0.5t6 -2.5q9 -5 12 -13q2 -6 -1.5 -10.5t-8.5 -6.5q-8 -3 -16 -3q-9 1 -18 1.5t-18 2.5q-17 5 -35 5t-36 -3q-6 -2 -11 -2q-36 -6 -36 32q-1 72 -2.5 143
t-3.5 143q-1 41 -2.5 81t-0.5 81q1 24 2.5 48t8.5 47q15 53 56.5 86t104.5 25q5 0 13 -4q5 -3 6 -9t-4 -9q-8 -7 -17 -8q-6 -1 -11.5 -1h-10.5q-28 0 -48 -13t-35 -34q-20 -27 -25.5 -58.5t-5.5 -64.5q0 -14 14 -17q13 -3 28 -3q5 -1 10.5 -0.5t11.5 -0.5q17 -2 17 -17
t-18 -18q-5 -1 -10.5 -0.5t-11.5 1.5q-6 0 -12 1l-12 2q-11 2 -14 -1t-4 -13v-8t1 -8v-44z" />
    <glyph glyph-name="question" unicode="?" 
d="M194 641q15 -20 20.5 -42t4.5 -45t-12 -40.5t-24 -34.5q-12 -15 -25 -29t-29 -25t-19.5 -28.5t-4.5 -35.5q-1 -15 0 -30t1 -31q1 -32 1.5 -65t0.5 -66q0 -20 -16 -23q-18 -3 -23 17v8q-1 3 -0.5 6.5t0.5 6.5q0 9 0.5 17.5t0.5 17.5v12t-1 28.5t-1.5 35t-1.5 31.5
q-1 18 -1 36t5 35q9 33 34 52q20 14 35.5 33t29.5 39q10 16 11.5 35t-4 37.5t-17 34t-28.5 23.5q-13 7 -29 5.5t-29.5 -9t-22 -20t-7.5 -28.5q1 -14 0 -28.5t-1 -29.5q0 -17 -12 -20q-15 -3 -22 15q-2 8 -2 13q0 15 -1 30t0 31q1 32 30 53q45 33 87.5 25t71.5 -47zM94 54
q11 -2 20.5 -12.5t7.5 -20.5q-2 -23 -25 -21q-13 1 -22.5 10t-7.5 20q1 10 10 17.5t17 6.5z" />
    <glyph glyph-name="exclam" unicode="!" horiz-adv-x="125" 
d="M33 166q-18 0 -19 21q-2 21 -2 42t-2 42v7.5v19t-0.5 23.5t-1.5 21q0 2 -0.5 5t0.5 5q5 32 1.5 63t-3.5 63v132q0 11 -0.5 21t0.5 21q0 12 4 21q3 7 9 10t12 1q12 -4 14 -18v-3q-2 -36 0 -72t0 -72q-2 -41 0.5 -80.5t-0.5 -80.5v-8q2 -19 3 -37.5t-1 -38.5q-2 -15 0 -31
l4 -32q0 -5 0.5 -11t0.5 -12q-1 -21 -19 -22zM64 62q12 -7 14.5 -14t-4.5 -20q-2 -4 -4 -7t-4 -7q-17 -21 -39 -11q-11 5 -17 17t-4 22q6 26 39 26q3 -1 8.5 -2.5t10.5 -3.5z" />
    <glyph glyph-name="emdash" unicode="&#x2014;" horiz-adv-x="296" 
d="M55 237q28 -1 58.5 -1.5t61.5 -1.5q10 0 19 1t18 1h6.5t6.5 -1q8 -3 9 -10.5t-5 -12.5q-7 -5 -12 -5q-23 0 -46.5 -3.5t-47.5 0.5q-20 4 -40.5 3t-41.5 0h-11.5t-11.5 2q-3 2 -5.5 6t-3.5 8q-1 5 3 7.5t9 3.5q8 1 15.5 1.5t18.5 1.5z" />
    <glyph glyph-name="endash" unicode="&#x2013;" horiz-adv-x="181" 
d="M31 207q-5 1 -8.5 1t-7.5 1q-5 2 -9.5 5t-3.5 10q1 6 5.5 8t9.5 3q8 0 16 -0.5t16 0.5h25t25 1q22 2 22 -12q0 -16 -19 -18h-40h-12q-5 0 -10 0.5t-9 0.5z" />
    <glyph glyph-name="uni0430" unicode="&#x430;" horiz-adv-x="222" 
d="M158 221q-3 -39 -0.5 -78.5t4.5 -79.5q2 -27 0 -53q0 -20 -21 -18t-42 3.5t-41 3.5q-5 1 -9.5 1t-9.5 2q-11 2 -14 6t-5 15q-2 14 -3.5 28t-2.5 28q-2 26 -3.5 51t-0.5 51q0 15 3.5 30.5t8.5 29.5q12 45 57 55q8 2 15 3t14 3q18 6 14 23q-7 21 -19 36.5t-36 20.5
q-9 2 -18 3t-19 3q-13 2 -22 7q-5 3 -4.5 9t5.5 8q9 3 19 3q32 2 56.5 -12t42.5 -40q16 -23 23 -48.5t9 -52.5q0 -11 -0.5 -20.5t-0.5 -20.5zM134 167h-1q-1 22 -1.5 43t-1.5 43q-1 18 -7 21.5t-23 -1.5q-20 -6 -31.5 -19.5t-18.5 -32.5q-16 -45 -13 -89t9 -89q2 -15 16 -16
q12 -2 24 -3.5t24 -2.5q15 -1 20 4.5t5 20.5q0 14 -1.5 28t-1.5 28q0 17 0.5 32.5t1.5 32.5z" />
    <glyph glyph-name="uni0431" unicode="&#x431;" horiz-adv-x="236" 
d="M146 607q7 -1 13.5 -2t13.5 -3q3 -2 5.5 -6t2.5 -7q-2 -6 -12 -8q-3 -1 -6.5 -0.5t-6.5 0.5q-38 2 -60 -11t-36 -48q-17 -39 -18 -82q-1 -12 2.5 -16t16.5 -8q9 -2 18.5 -4t18.5 -5q35 -13 52.5 -39t21.5 -60q5 -38 6.5 -76t0.5 -76q0 -32 -1 -63.5t1 -63.5q1 -5 -1 -14
q-5 -20 -24 -16q-23 5 -47 4.5t-47 -1.5h-6q-26 2 -33.5 9.5t-7.5 33.5v15t1 15q5 42 3 82t-4 81q-2 54 -4.5 108.5t5.5 108.5q6 49 27 96q15 31 39.5 44t57.5 12h8zM44 141h-2q0 -20 -0.5 -39t-1.5 -39q0 -4 0.5 -7t0.5 -7q2 -11 5.5 -15t14.5 -5q18 -1 35.5 -0.5t35.5 0.5
q14 0 16 15q1 7 1.5 13.5t0.5 13.5q0 11 -1 23t0 23q5 48 2.5 96t-6.5 96q-3 38 -30.5 61.5t-63.5 21.5q-15 0 -16 -15v-11l6 -162z" />
    <glyph glyph-name="uni0432" unicode="&#x432;" horiz-adv-x="223" 
d="M86 413q5 -3 7.5 -5t5.5 -3q19 -6 29 -20t15 -32q5 -15 8.5 -30t5.5 -31t3 -31.5t1 -31.5q1 -26 1.5 -51.5t0.5 -51.5q1 -23 1 -45v-45v-9t-1 -9q-2 -12 -6.5 -15.5t-16.5 -2.5q-22 1 -43 2t-43 2q-8 0 -14.5 -2t-13.5 -4q-20 -5 -21 16q-1 29 -1.5 57.5t-0.5 57.5
q0 28 1 55.5t2 55.5q1 49 2.5 97.5t1.5 97.5q0 26 -2 51.5t-4 51.5q0 11 -0.5 23t-0.5 24q3 31 32 24q14 -4 27.5 -8t27.5 -10q31 -14 43 -45t9 -62q-2 -19 -13.5 -33.5t-26.5 -25.5q-3 -3 -7 -5.5t-9 -6.5zM136 175l-0.5 8.5t-0.5 21v26v23.5q0 25 -5 48.5t-11 47.5
q-2 8 -6 15t-12 10q-26 10 -50 14q-15 3 -18 -15q-1 -9 -1 -18t-1 -19q-1 -45 -2.5 -90.5t-1.5 -91.5q0 -27 1 -54t3 -54q0 -14 11 -15q16 -2 31.5 -3.5t31.5 -2.5q20 0 27.5 7.5t6.5 27.5zM117 504q1 29 -16.5 49t-47.5 26q-27 4 -26 -22l3 -48q2 -15 2.5 -30t1.5 -30
q1 -14 15 -14q25 2 46 23t22 46z" />
    <glyph glyph-name="uni0433" unicode="&#x433;" horiz-adv-x="187" 
d="M10 45q0 21 -1 42.5t-1 43.5q0 25 1 49.5t1 49.5v43t-4 42q-6 38 15.5 62t51.5 28q15 2 30.5 1t30.5 -2q8 -1 12 -6t5 -13q0 -21 -21 -15q-21 7 -40 8q-16 1 -28 -6.5t-22 -18.5q-3 -3 -4 -8l-2 -10t-1 -10.5v-11.5q4 -46 1 -91.5t-3 -92.5q0 -27 1.5 -54.5t3.5 -54.5
q0 -5 0.5 -9.5t-1.5 -9.5q-1 -3 -3.5 -6.5t-4.5 -3.5q-3 0 -7 2t-6 5q-2 5 -3 10.5t-2 10.5q0 6 0.5 12t0.5 14z" />
    <glyph glyph-name="uni0434" unicode="&#x434;" horiz-adv-x="219" 
d="M157 53q0 -29 -0.5 -52.5t-0.5 -46t-0.5 -45t-0.5 -48.5l-3 -45q-1 -6 -3.5 -10.5t-10.5 -4.5q-7 0 -10 4.5t-4 10.5q-1 5 -0.5 9.5t1.5 9.5q2 20 2.5 37t0.5 33t-1 33t-1 37q0 17 -3.5 20.5t-20.5 5.5l-30 4t-31 -4q-7 -3 -13 0t-8 9q-6 10 -6 24q0 17 0.5 34t0.5 34
v6.5t-1 7.5q-10 32 -7.5 64t6.5 64q1 8 1.5 15.5t1.5 15.5q1 11 1.5 21.5t1.5 21.5q4 41 27.5 63.5t58.5 30.5q21 4 42 3q20 0 20 -22q-1 -33 -1.5 -66.5t-1.5 -66.5q-1 -36 -1 -72t-1 -72q-1 -17 -2.5 -34t-2.5 -29zM136 385q-8 -2 -12.5 -2t-9.5 -2q-26 -6 -46.5 -27
t-20.5 -53q0 -13 -1.5 -25.5t-1.5 -25.5q-3 -98 -3 -195q0 -10 3 -13.5t13 -4.5q12 -2 24 -3t24 -1q14 -2 18 1.5t6 17.5q2 20 3 40.5t2 41.5l3 195q1 14 0 27t-1 29z" />
    <glyph glyph-name="uni0435" unicode="&#x435;" horiz-adv-x="180" 
d="M138 171v-11q0 -16 -5 -21.5t-21 -6.5q-14 -1 -27 -1.5t-26 -2.5q-13 -1 -18 -5.5t-4 -16.5q0 -17 0.5 -33.5t1.5 -33.5q0 -14 13 -14q14 -1 28 -1.5t28 -0.5q7 0 13.5 -1t12.5 -6q5 -5 4.5 -10.5t-6.5 -7.5q-5 -2 -9.5 -4t-9.5 -2q-23 2 -45.5 4t-45.5 4q-17 3 -17 22
q1 50 2 99t1 99q1 32 -0.5 63t-1.5 63q-2 26 0 53q1 23 25 23q15 0 31.5 -4.5t31 -14t25.5 -25t14 -37.5q4 -21 3.5 -42t0.5 -42l-0.5 -9.5t-0.5 -23t0.5 -28.5t1.5 -25zM103 200q0 29 0.5 57.5t0.5 57.5q0 9 -2 18.5t-4 19.5q-9 30 -42 35q-20 4 -21 -17v-12
q1 -16 1.5 -31.5t0.5 -32.5l3 -114v-11q0 -9 10 -11h14q14 1 22.5 3t12 6t4.5 11.5t0 20.5z" />
    <glyph glyph-name="uni0451" unicode="&#x451;" horiz-adv-x="195" 
d="M83 32q7 -1 13.5 -1t12.5 -1q9 0 13 -2q15 -5 12 -18q-3 -10 -16 -10q-20 1 -41 1h-41q-14 1 -20.5 7t-7.5 21q0 12 0.5 24.5t0.5 25.5v58q0 3 -0.5 6t0.5 7q6 28 3.5 56t-4.5 56q-2 29 -3 58l-2 58v13.5t2 12.5q5 17 20 12q7 -2 12 -5q30 -19 55 -37q17 -12 25 -29.5
t10 -38.5l4 -64l4 -64v-11q-1 -13 -4.5 -17.5t-16.5 -6.5q-11 -2 -21 -3t-21 -3q-5 -1 -9 -1t-9 -1q-15 -3 -15 -16q-1 -18 -1.5 -36t-0.5 -35q0 -14 14 -16q8 0 16 -0.5t16 -0.5v1zM33 335h-1q2 -34 4 -67.5t4 -67.5q1 -14 2.5 -21.5t5 -10.5t11.5 -2.5t22 2.5
q17 2 20.5 5.5t2.5 20.5q0 26 -1.5 53t-2.5 53t-15.5 42.5t-36.5 27.5q-11 7 -13 -6q-1 -8 -1 -15t-1 -14zM50 451q-2 -15 -18 -15q-10 0 -16.5 7.5t-5.5 18.5q0 8 5 14t12 6q8 -1 16 -11t7 -20zM123 443q-2 -14 -19 -14q-10 1 -18 9t-6 17q2 8 9 13.5t14 4.5q8 -1 15 -11.5
t5 -18.5z" />
    <glyph glyph-name="uni0436" unicode="&#x436;" horiz-adv-x="250" 
d="M131 270q33 -26 43.5 -63t13.5 -77q2 -26 2.5 -52t1.5 -52v-5q0 -9 -4 -14.5t-10 -4.5q-14 0 -16 18q-1 17 -2 32.5t0 31.5q1 26 -1 51t-8 50q-2 10 -6 19.5t-8 18.5q-4 8 -7 11q-5 5 -10 8t-11 1q-7 -3 -7 -8.5v-10.5q4 -42 1.5 -84.5t-2.5 -84.5q0 -8 1.5 -17t2.5 -17
q0 -5 0.5 -8.5t-0.5 -7.5q-2 -8 -9 -12q-11 -5 -15 8q-2 6 -3 12.5t-1 13.5l2 60t1 61q0 19 -0.5 38t-1.5 38q-10 3 -14.5 -1t-6.5 -9q-10 -20 -16.5 -41t-4.5 -44q2 -25 3.5 -49t2.5 -49q2 -12 -3 -21q-1 -3 -4.5 -5.5t-6.5 -3.5q-10 -1 -14 10q-1 4 -1 11q3 29 1 56.5
t-4 55.5q-2 35 8.5 67t34.5 59q1 1 1 2.5t1 3.5q-2 1 -2.5 2.5t-2.5 2.5q-23 14 -31 34.5t-6 46.5q1 11 1 22.5t1 22.5q0 6 2 10.5t9 6.5q5 2 10 -1.5t7 -11.5q4 -12 4 -29q0 -11 -1 -22.5t-1 -23.5q0 -17 12 -26q7 -4 12 -3q2 1 3.5 4.5t2.5 5.5q1 9 0.5 18t1.5 17
q1 19 13 21q13 0 13 -23q0 -7 -0.5 -13.5t0.5 -13.5q1 -18 17 -12q38 13 37 53q0 9 -1.5 18t-1.5 19q-1 5 0.5 9t7.5 6t10.5 -1.5t5.5 -9.5q4 -17 7 -33t-1 -33q-4 -16 -11.5 -28.5t-23.5 -19.5q-5 -2 -8.5 -4.5t-9.5 -6.5z" />
    <glyph glyph-name="uni0437" unicode="&#x437;" horiz-adv-x="208" 
d="M115 274l7 -10.5t5 -9.5q19 -30 18 -66q-2 -35 -1 -70.5t2 -70.5q0 -7 1.5 -13.5t3.5 -13.5q3 -18 -14 -22q-21 -5 -40 -2q-18 2 -35.5 5.5t-36.5 -1.5h-3q-16 0 -18 13q-1 6 3.5 12.5t10.5 8.5q7 1 13.5 1.5t13.5 -0.5q13 -1 25.5 -2t25.5 -2t16.5 2.5t4.5 15.5
q1 20 1 40.5v40.5q0 7 -0.5 13.5t1.5 13.5q4 14 2 27t-2 26q-1 11 -7 19l-12 16q-3 4 -7.5 5t-9.5 2q-7 1 -14 0.5t-13 1.5q-4 1 -8 4.5t-5 7.5q-1 5 3 9t9 6q3 1 6 1t5 1q6 2 12.5 4.5t11.5 6.5q33 21 22 58q-4 16 -17.5 27t-30.5 10q-15 0 -28 6q-7 2 -7 8.5t7 9.5
q12 5 23 5q52 1 75 -48q22 -50 -12 -88q-4 -4 -7 -8z" />
    <glyph glyph-name="uni0438" unicode="&#x438;" horiz-adv-x="209" 
d="M120 165q-11 -17 -21 -35l-20 -36q-5 -8 -8.5 -15.5t-8.5 -15.5q-7 -11 -12.5 -22.5t-7.5 -25.5t-14 -15q-8 -1 -11.5 3.5t-5.5 10.5q-2 5 -3 9.5t-1 9.5q2 29 4.5 58.5t5.5 58.5q4 40 3.5 79t-1.5 78v39.5t1 39.5q0 6 2.5 12t4.5 12q4 5 11 5t10 -6q4 -11 4 -24
q0 -17 -1 -34.5t-1 -34.5v-110q0 -8 -1 -17l-2 -18q0 -14 -0.5 -28.5t-0.5 -29.5l7 2q14 25 29 49.5t29 49.5q2 2 2.5 5t2.5 5q12 10 13.5 23t0.5 27q0 14 1 28.5t2 28.5q1 13 1 25t1 25v6.5t2 6.5q2 8 9 8q3 1 6.5 -1t5.5 -4q4 -10 4 -18q2 -23 0 -44q-2 -50 -3.5 -99
t-3.5 -99q-1 -31 -1 -61.5v-61.5q0 -3 0.5 -6t-0.5 -5q-2 -15 -17 -15q-12 2 -14 14q0 7 0.5 13t0.5 12q1 35 1.5 68.5t1.5 67.5q-6 2 -7 2z" />
    <glyph glyph-name="uni0439" unicode="&#x439;" horiz-adv-x="208" 
d="M52 121q3 5 6 9t5 9q14 27 27 54.5t27 55.5q2 4 3 8.5t2 9.5q1 25 1.5 49.5t1.5 48.5v19.5t2 19.5q0 13 12 13q11 0 14 -12q1 -7 1.5 -13.5t-0.5 -13.5q-5 -53 -3.5 -105t2.5 -105q1 -29 0.5 -57.5t-0.5 -57.5q0 -6 0.5 -12t0.5 -13q0 -5 0.5 -11t-1.5 -11
q-2 -18 -16 -16q-13 1 -13 19q0 36 0.5 72.5t0.5 72.5q0 8 0.5 15.5t-4.5 16.5q-10 -11 -15 -22.5t-10 -22.5q-11 -21 -20.5 -42.5t-19.5 -43.5l-15 -39q-9 -20 -28 -10q-5 4 -6 8.5t-1 10.5q3 26 5.5 52t4.5 52q3 57 4.5 113t-1.5 113q-2 21 0 42q0 4 1 8.5t3 7.5
q2 2 5 4.5t6 2.5t6 -2.5t5 -4.5q3 -8 3 -16q1 -38 1.5 -74.5t-0.5 -73.5q0 -32 -1 -63t-2 -63q2 -1 3 -1t3 -1zM86 459q-7 1 -12 9t-3 17q1 7 5.5 12t9.5 4q8 0 14.5 -7t5.5 -15q-2 -8 -8 -14.5t-12 -5.5z" />
    <glyph glyph-name="uni043A" unicode="&#x43a;" horiz-adv-x="208" 
d="M88 291q3 -3 2 -3q27 -16 39.5 -40t15.5 -54q1 -17 2 -33.5t2 -33.5l3 -111q0 -13 -4 -22q-2 -5 -6 -7.5t-9 -0.5q-7 2 -11 11q-2 4 -1.5 8t0.5 8q-1 15 -1.5 29.5t-0.5 28.5q0 9 1 18t1 18q2 29 -1.5 56t-10.5 54q-12 44 -58 48q-16 1 -17 -13q-1 -11 -1 -21t-1 -21
q0 -19 1 -37.5t-1 -37.5q-4 -27 -2.5 -53.5t4.5 -53.5q0 -5 0.5 -9t-1.5 -8q-2 -3 -5.5 -6t-6.5 -3q-7 0 -13 8q-2 3 -2.5 7t-0.5 8v148q0 21 -0.5 42.5t0.5 43.5q1 34 1.5 67.5t2.5 68.5q0 3 -0.5 7t1.5 6q2 3 5.5 6t6.5 4q10 1 12 -13q0 -3 -0.5 -6.5t-0.5 -6.5
q-1 -17 -1.5 -33.5t-0.5 -33.5q1 -24 23 -13q22 13 40 29q8 6 9 15t2 19q0 6 -0.5 12t0.5 13q1 5 4 9.5t10 5.5q6 0 10.5 -4t4.5 -12q1 -15 0 -29.5t-8 -28.5q-5 -12 -12.5 -23t-18.5 -19q-3 -2 -7 -8z" />
    <glyph glyph-name="uni043B" unicode="&#x43b;" horiz-adv-x="209" 
d="M119 374q-30 -8 -48 -26.5t-21 -47.5q-2 -16 -2 -31.5t-1 -31.5q-1 -27 -1 -54.5t-1 -54.5q-1 -26 -2 -51.5t-3 -51.5q-1 -24 -15 -24q-14 -1 -16 26q-2 37 1 73t8 73q2 17 1 34t-1 34v28.5t2 28.5q6 72 73 102q8 4 15.5 7.5t15.5 6.5q26 11 31 -17v-17q-3 -32 -3 -63
t2 -63q1 -8 0.5 -14.5t-1.5 -14.5q-2 -39 -3 -78.5t-2 -78.5q-1 -14 0 -28.5t0 -29.5q0 -5 -1 -10t-4 -8q-7 -7 -18 -5q-2 0 -5 4.5t-3 8.5q0 12 1.5 24t1.5 24q1 45 1.5 89t1.5 89q0 35 -0.5 70t-0.5 70q0 2 -1 4z" />
    <glyph glyph-name="uni043C" unicode="&#x43c;" horiz-adv-x="281" 
d="M126 352q8 8 14 14.5t11 13.5q18 21 43 28q25 6 25 -19q1 -23 1 -45v-45q1 -27 1.5 -53.5t0.5 -53.5q0 -32 -0.5 -64t-0.5 -64q0 -10 0.5 -19.5t0.5 -19.5q0 -3 0.5 -6.5t-0.5 -6.5q-1 -8 -6 -12t-11 -3q-13 2 -13 15q-1 9 -0.5 18.5t0.5 19.5q1 42 2 84.5t1 84.5
q0 32 -0.5 64.5t-1.5 64.5v11t-6 8q-4 1 -9 -2.5t-8 -7.5q-32 -35 -34 -84q-1 -13 -2.5 -25t-2.5 -24q0 -11 0.5 -21t0.5 -20v-12.5t-1 -12.5q-2 -7 -7 -10.5t-11 -3.5q-12 1 -14 15v21l2 54t2 53q0 18 -3.5 35.5t-14.5 32.5q-7 12 -17 16q-17 8 -23 4t-5 -23q2 -47 4 -93
t2 -93q0 -40 -2 -79.5t-4 -79.5q-1 -1 -0.5 -2t-0.5 -3q-2 -6 -7.5 -10.5t-10.5 -2.5q-14 3 -12 16q1 12 2 23.5t2 23.5q4 49 4.5 98t-2.5 98q-2 26 -2 51t-1 50q0 14 -1.5 26.5t-0.5 25.5q0 23 21 13q7 -2 13.5 -4.5t14.5 -4.5q19 -5 34 -14t24 -28q1 -2 3 -4t6 -7z" />
    <glyph glyph-name="uni043D" unicode="&#x43d;" horiz-adv-x="209" 
d="M9 230q0 5 -0.5 8.5t-0.5 8.5v141q0 4 0.5 8t0.5 8q2 12 12 13q13 1 15 -12q1 -7 1 -13.5v-13.5q1 -17 1 -34v-34q0 -16 14 -16q16 -1 31.5 -1h31.5q13 0 13 20v76v8t1 8q2 5 4.5 8.5t8.5 2.5q10 -1 10 -14q0 -24 -0.5 -47.5t2.5 -47.5q3 -31 0.5 -61t-1.5 -61
q1 -30 0.5 -60.5t-0.5 -61.5v-51q0 -5 -2 -11q-2 -5 -6 -8t-9 -1q-3 1 -6.5 3.5t-4.5 5.5q-3 16 -3 33q0 12 1 24l2 24q0 17 0.5 34t0.5 34q1 25 0.5 49t-0.5 49q0 14 -12 14q-16 1 -31.5 1h-31.5q-15 -2 -15 -16q0 -8 -1 -15t0 -15q4 -49 3 -97.5t-3 -97.5q-1 -22 -15 -22
q-15 0 -14 24q0 16 1 31.5t2 31.5v143z" />
    <glyph glyph-name="uni043E" unicode="&#x43e;" horiz-adv-x="222" 
d="M170 165v-8t-1 -9q-4 -30 -2.5 -60t3.5 -60q2 -18 -2.5 -23.5t-23.5 -8.5q-27 -4 -54.5 -2.5t-54.5 6.5q-17 2 -23.5 10.5t-5.5 25.5q0 27 1 54.5t1 54.5q0 42 -0.5 82.5t-0.5 82.5q0 25 9.5 46t26.5 39q25 28 51.5 23t48.5 -31q14 -17 18.5 -37.5t5.5 -41.5
q1 -36 1.5 -71.5t0.5 -71.5h1zM40 136h-1q0 -6 -0.5 -11.5t-0.5 -11.5q0 -16 -0.5 -32t-0.5 -32q1 -11 4.5 -14.5t14.5 -4.5q24 -3 50 -3q22 0 25.5 4t3.5 26v193v37.5t-2 37.5q-2 20 -9 35q-4 7 -10.5 13.5t-15 8.5t-17.5 -1t-18 -14l-10 -14t-7 -15q-8 -24 -9 -49
q0 -38 1 -76.5t2 -76.5z" />
    <glyph glyph-name="uni043F" unicode="&#x43f;" horiz-adv-x="210" 
d="M6 78q1 31 1.5 61t0.5 60q1 25 0 50t0 50q0 22 1.5 43t-2.5 43q-2 13 2.5 18.5t17.5 7.5q23 4 45.5 5.5t45.5 -1.5q20 -2 29 -12t11 -30q0 -11 -0.5 -21.5t-0.5 -21.5v-37.5t-1 -37.5q-1 -32 -2.5 -63.5t-1.5 -63.5q0 -29 1 -56.5t2 -56.5q0 -2 0.5 -3t0.5 -2
q0 -22 -16 -22q-7 0 -12 6t-6 15q0 31 -0.5 61.5t0.5 62.5l2 86l2 86q1 29 0 59q-1 11 -4 14.5t-14 3.5q-14 1 -28.5 0t-28.5 -3q-11 0 -11 -13q-1 -29 -2.5 -56.5t-0.5 -56.5q1 -32 1.5 -64.5t-2.5 -64.5q-2 -23 -2 -46t-1 -46q0 -5 0.5 -9.5t0.5 -9.5q-2 -14 -14 -14
q-11 -1 -15 12q-3 8 -1 19q0 12 0.5 24t1.5 24z" />
    <glyph glyph-name="uni0440" unicode="&#x440;" horiz-adv-x="208" 
d="M13 112q1 20 1.5 38.5t1.5 38.5q2 47 2 93t-7 94q0 5 -0.5 9t-0.5 9q-2 31 30 26q16 -2 32 -9.5t29.5 -19.5t23.5 -27.5t14 -31.5q3 -12 4 -24.5t2 -24.5q1 -30 2 -59.5t1 -59.5q1 -35 0.5 -69.5t4.5 -69.5q4 -23 -20 -23q-14 1 -27.5 2t-27.5 3q-14 1 -21.5 1
t-11.5 -3.5t-4.5 -11t-0.5 -20.5v-50t1 -50q0 -5 1 -10.5t2 -10.5t2 -9t-1 -9q-4 -10 -11 -13q-5 -3 -10 0t-7 8q-5 10 -5 20q-1 8 0 16.5t1 17.5l-2 50t-1 50q0 48 3 98q0 8 0.5 15.5t0.5 15.5h-1zM43 186v-63t1 -63q0 -12 2.5 -15t14.5 -5q9 -1 18.5 -1.5t18.5 -0.5
q11 -1 14.5 2.5t4.5 15.5q1 7 0 16q0 22 -0.5 44t1.5 45q2 38 0 75t-6 75q-1 9 -4 18t-7 17q-13 24 -41 35q-15 5 -17 -10q-2 -12 0 -24q7 -81 0 -161z" />
    <glyph glyph-name="uni0441" unicode="&#x441;" horiz-adv-x="203" 
d="M92 0h-47q-15 0 -22.5 5.5t-8.5 21.5q0 10 -1.5 19.5t-1.5 19.5q-3 51 -1 101.5t3 101.5q0 76 58 125q24 21 57 24q19 3 23 -16q2 -16 3.5 -31.5t3.5 -31.5v-5q-3 -16 -16 -16q-11 1 -14 14q-1 5 -1 15q-1 5 -0.5 10.5t-0.5 10.5q-1 8 -5 11t-11 -1q-11 -5 -21 -11.5
t-17 -15.5q-12 -15 -19.5 -32.5t-8.5 -37.5q-2 -48 -2.5 -94.5t-1.5 -94.5q-1 -11 0 -22.5t3 -22.5q3 -17 20 -17q14 1 27.5 1.5t27.5 2.5t14 16q-1 8 -1.5 17t-0.5 17q0 7 -0.5 13.5t1.5 12.5q0 3 3.5 5.5t7.5 3.5q10 3 15 -8q0 -2 0.5 -3.5t0.5 -3.5q2 -21 3.5 -41.5
t3.5 -40.5q1 -11 -3.5 -16t-16.5 -5q-13 -1 -26 -0.5t-27 0.5v-1z" />
    <glyph glyph-name="uni0442" unicode="&#x442;" horiz-adv-x="227" 
d="M111 182q2 -32 -2 -63.5t1 -63.5q2 -8 2 -16t1 -16v-9.5t-1 -9.5q-4 -13 -15 -13q-14 -2 -18 14q-2 4 -1 8q2 45 0.5 89t0.5 89q2 27 1 54t1 55q2 17 0.5 34.5t-2.5 35.5q-1 11 -4.5 14t-14.5 3q-7 1 -13.5 0.5t-13.5 0.5q-6 1 -11.5 2.5t-10.5 5.5q-8 5 -6 14t11 11
q4 1 8 1h8q32 -1 63.5 -2t63.5 -7q4 -1 8 -1.5t8 -2.5q13 -4 12 -15q-2 -13 -13 -16q-5 -1 -11 -0.5t-11 1.5l-14 2t-15 2q-11 2 -13 -11v-8q1 -27 1 -54t1 -55l-0.5 -8t-1 -19t-0.5 -24t1 -22z" />
    <glyph glyph-name="uni0443" unicode="&#x443;" horiz-adv-x="223" 
d="M171 84l-2 -36t-1 -36q0 -20 0.5 -39.5t0.5 -39.5v-114q0 -5 -1 -8.5t-3 -7.5q-5 -11 -18 -10q-5 1 -9.5 6t-4.5 11q-1 3 -0.5 5.5t1.5 5.5q5 44 4.5 80t-2.5 80q-1 11 -4 14.5t-12 5.5q-16 5 -32 12t-30 15q-56 34 -52 99q3 50 5 99t4 99q0 14 -0.5 28t-0.5 28v9.5
t2 9.5q4 10 13 12q5 2 9.5 -2t6.5 -9t2 -10.5v-11.5l-2 -48t-2 -49q-1 -42 -1.5 -82.5t-2.5 -82.5q0 -25 17 -44q24 -27 59 -36q21 -7 23 17q1 8 1 16v16v100q1 45 1.5 90.5t1.5 90.5v13.5t2 13.5q2 10 6 15q2 2 6.5 4.5t6.5 1.5q3 -1 5.5 -4.5t4.5 -7.5q1 -5 0.5 -9.5
t-0.5 -9.5q-5 -54 -4.5 -106.5t2.5 -106.5v-87z" />
    <glyph glyph-name="uni0444" unicode="&#x444;" horiz-adv-x="291" 
d="M233 135v-110v-10q-2 -26 -26 -21q-14 2 -27.5 4t-27.5 4q-17 3 -18 -16q-1 -14 -1.5 -27.5t-0.5 -27.5q0 -23 1 -45t1 -45q0 -2 0.5 -5t-0.5 -5q-2 -5 -5.5 -10t-10.5 -5q-5 -1 -9 3.5t-5 12.5q-1 5 -0.5 9.5t0.5 9.5q-1 34 -1 68t-1 69q0 12 -3 14.5t-15 4.5
q-11 1 -21 0.5t-21 0.5q-18 2 -24.5 8.5t-7.5 24.5q-1 12 -1.5 24t-0.5 24q-1 45 -0.5 88.5t4.5 87.5q5 46 22 84q13 30 37 43.5t55 16.5q8 0 14.5 -2t11.5 -9q7 -9 21 -14q26 -11 39 -32t18 -48q6 -39 7 -80t-4 -89zM40 213q0 -36 -0.5 -72t1.5 -72q1 -24 5.5 -28.5
t27.5 -1.5q7 0 11 1q14 2 17 5.5t4 17.5q1 5 1 8.5v7.5l3 153q1 23 0.5 47t-0.5 47q0 15 -3 32q-1 10 -6 12.5t-13 -3.5q-15 -11 -22 -26q-8 -17 -13.5 -34t-6.5 -36q0 -7 -1 -17t-2 -19t-2 -15.5zM141 362q-1 -19 -1.5 -36.5t-0.5 -34.5q0 -23 1 -46t1 -46q-1 -32 -2 -63
t-2 -63q-1 -15 -0.5 -22.5t4 -11t11 -5t21.5 -4.5q3 -1 11 -1q16 0 13 14q-2 19 -1 37t3 37q3 45 4 88t-5 88q-3 25 -15.5 43.5t-41.5 25.5z" />
    <glyph glyph-name="uni0445" unicode="&#x445;" horiz-adv-x="236" 
d="M62 268q-5 4 -8.5 8t-7.5 7q-24 21 -26 52q-1 27 0 52q2 15 15 17q6 0 12 -5t7 -12q1 -5 0.5 -9.5t-0.5 -9.5q1 -9 1.5 -18.5t2.5 -19.5q3 -14 14 -25q9 -11 17.5 -11t21.5 7q32 19 32 53q1 8 1 16.5t1 16.5q1 4 1 7.5t2 7.5q3 8 10.5 9t12.5 -5q2 -4 4.5 -8t2.5 -9
q3 -42 -13 -80q-2 -5 -5.5 -8.5l-7.5 -7.5q-5 -5 -10.5 -9.5t-11.5 -9.5q2 -4 4.5 -7t4.5 -6q16 -23 21 -47.5t7 -50.5q2 -32 2.5 -62.5t1.5 -62.5q2 -11 0 -22q-2 -7 -8 -12t-11 -4q-8 0 -13 6t-6 14q0 34 -0.5 68t-0.5 68q1 19 -3.5 36.5t-10.5 34.5q-1 4 -5 10
q-14 19 -28 1q-14 -15 -27 -35q-16 -25 -17 -53q-2 -35 -0.5 -68.5t6.5 -67.5q3 -16 -9 -20q-15 -3 -22 8q-7 10 -7 22q-2 32 -2 63t-1 62q0 43 27 78q8 10 14.5 20t14.5 21z" />
    <glyph glyph-name="uni0446" unicode="&#x446;" horiz-adv-x="235" 
d="M9 148v95.5t-1 95.5q0 11 -1 21t-2 21q0 6 0.5 12.5t2.5 12.5q1 3 4.5 5.5t7.5 4.5q11 4 16 -8q2 -4 3 -7.5t1 -8.5q1 -26 1.5 -51.5t0.5 -51.5q0 -10 -0.5 -20t0.5 -20q5 -47 2.5 -93t-2.5 -94q0 -25 5.5 -30t29.5 -1q8 2 15.5 2.5t15.5 2.5q11 2 15 6.5t5 15.5
q0 17 -0.5 34.5t0.5 35.5q0 25 1 50t1 51v72.5t-1 72.5q0 6 -0.5 12t1.5 11q2 3 5 6.5t6 4.5t7.5 -1t6.5 -5q6 -8 8 -20q1 -11 0.5 -22.5t0.5 -22.5q0 -18 0.5 -35.5t-0.5 -34.5q0 -18 -1.5 -35.5t-2.5 -34.5v-73q-1 -17 -0.5 -33.5t-0.5 -33.5q0 -10 3 -16t14 -9
q30 -6 24 -37q-2 -8 -1 -16.5t0 -17.5q-2 -13 -15 -13q-15 -2 -17 15q-1 5 -1 11v11q0 15 -14 15q-16 0 -32 0.5t-32 -1.5q-15 -2 -29.5 -1t-28.5 6q-21 8 -20 29q0 29 -1 57.5t-2 57.5h2z" />
    <glyph glyph-name="uni0447" unicode="&#x447;" horiz-adv-x="208" 
d="M143 129q1 -29 0.5 -57.5t-0.5 -57.5q0 -5 -1 -8q-3 -7 -10 -11t-12 -2q-12 4 -12 19l2 52t1 52l-3 123q-1 12 -3.5 15t-14.5 8q-11 4 -21.5 8t-21.5 8q-21 8 -31 24.5t-12 37.5q-1 16 0.5 31.5t2.5 30.5q2 12 13 12q14 0 16 -12q1 -7 0.5 -13.5t0.5 -13.5q1 -11 1.5 -22
t2.5 -22q1 -9 7.5 -16.5t15 -12.5t18 -7.5t18.5 -0.5q3 1 6 4.5t3 6.5q0 19 -0.5 38t-0.5 38q0 6 -1.5 11.5t0.5 10.5q1 4 4.5 8t6.5 5q4 1 9 -1.5t7 -6.5q6 -6 6 -17q2 -15 2.5 -30t1.5 -30q0 -11 -0.5 -22t-0.5 -22q0 -10 -0.5 -20t-0.5 -21v-13v-31t0.5 -38t0.5 -35z" />
    <glyph glyph-name="uni0448" unicode="&#x448;" horiz-adv-x="277" 
d="M11 104q-1 14 -1 35t-1 44v11v144q0 8 -0.5 16.5t-0.5 16.5q-2 13 0 27q3 18 15 16q8 0 11.5 -4.5t5.5 -10.5q1 -3 1 -11v-55.5t1 -55.5q0 -42 0.5 -84t0.5 -84q0 -14 -0.5 -27.5t-0.5 -27.5q0 -11 3.5 -14t14.5 -3h6q12 1 15.5 4.5t4.5 14.5q1 3 0.5 6.5t-0.5 6.5
q0 39 -0.5 78t-0.5 77q0 20 3 41q2 17 16 15q13 -2 13 -18q1 -4 0.5 -8t-0.5 -8q0 -38 0.5 -76t0.5 -76v-23.5t1 -22.5q0 -12 11 -13q1 0 1 -0.5t1 -0.5q13 -2 20 -1.5t10 3.5t3.5 9.5t1.5 16.5q2 32 4 63.5t4 63.5q2 23 1.5 45t0.5 45q0 26 1 51.5t2 51.5q1 6 1 12.5
t2 11.5q3 7 11 11q5 2 9.5 -0.5t6.5 -7.5q5 -9 4 -18q-2 -36 -4.5 -71.5t-4.5 -71.5q0 -6 -0.5 -11.5t-0.5 -10.5q-2 -53 -2.5 -105t-1.5 -104q-1 -13 -5 -16.5t-18 -2.5q-11 1 -21.5 3t-21.5 2q-22 1 -43.5 0.5t-43.5 -0.5h-19q-21 1 -21 23q1 17 1.5 35t2.5 43z" />
    <glyph glyph-name="uni0449" unicode="&#x449;" horiz-adv-x="306" 
d="M183 40q1 42 2 82.5t1 80.5q1 45 0.5 88.5t-1.5 88.5q0 4 -0.5 8t1.5 8q1 3 4 6.5t6 4.5t7.5 -0.5t6.5 -4.5q7 -11 6 -20q-2 -22 0.5 -43t-1.5 -43q-2 -11 0 -23t2 -23q0 -32 -0.5 -62.5t-0.5 -61.5q0 -20 1 -39l2 -38q1 -13 15 -16q17 -3 20.5 -8t2.5 -21v-13t-2 -12
q-1 -9 -8 -17q-6 -6 -13.5 -4t-10.5 10q-1 1 -1 2t-1 3q-1 5 -0.5 12t-2.5 9q-5 3 -12.5 4t-13.5 1q-38 -1 -76 2.5t-76 -0.5q-28 -3 -27 25q1 36 2.5 71.5t3.5 71.5q0 14 -0.5 29t-1.5 29q-2 31 -3.5 61.5t-3.5 62.5q0 11 -0.5 23t-0.5 24q0 11 11 14q13 3 18 -10
q4 -8 4 -21q2 -39 2.5 -78.5t2.5 -78.5q3 -42 2 -84l-2 -84q0 -12 3 -15t14 -4h17q14 0 14 13v14q1 26 2 52.5t1 52.5q0 20 -1 39.5t-2 39.5q0 8 -0.5 16.5t1.5 16.5q1 4 5 8t7 5q4 0 8.5 -3t7.5 -6q4 -5 4 -15q1 -26 3.5 -52.5t-1.5 -52.5q-4 -23 -3.5 -47.5t-0.5 -48.5
q0 -8 1 -11q2 -17 6.5 -20t21.5 1q4 1 7 1.5t7 0.5q3 0 6.5 -0.5t7.5 -0.5z" />
    <glyph glyph-name="uni044A" unicode="&#x44a;" horiz-adv-x="236" 
d="M176 128q0 -17 -0.5 -34.5t-0.5 -34.5q-1 -10 0 -20t9 -18q5 -5 3.5 -11.5t-8.5 -9.5q-6 -4 -13 -7t-12 -1q-17 4 -34.5 3.5t-34.5 1.5q-15 2 -21 7.5t-8 21.5q-1 14 0 28.5t1 28.5q0 20 -0.5 39t-1.5 38q-1 5 -1 14q-1 46 -1 91t-1 91q0 3 0.5 6.5t0.5 6.5
q-1 15 -3.5 18t-16.5 2q-3 0 -6 -1t-5 0q-9 5 -12 13q-1 2 2 6.5t5 5.5q11 4 22.5 6.5t22.5 3.5q12 1 16.5 -5t4.5 -18q0 -11 0.5 -22t-1.5 -22q-1 -17 15 -27q6 -4 11.5 -7.5t11.5 -7.5q30 -17 42.5 -43t14.5 -58q1 -11 0.5 -25t-0.5 -28q-1 -16 -1 -32zM82 298
q-1 -5 -2 -8.5t-1 -6.5q2 -32 2 -64.5t3 -64.5q2 -24 2.5 -47.5t-0.5 -46.5q0 -21 6 -27t28 -6h8q15 1 15 16q1 4 1 8v8v77.5t-2 76.5q0 10 -2.5 19.5t-5.5 18.5q-7 18 -20 29t-32 18z" />
    <glyph glyph-name="uni044B" unicode="&#x44b;" horiz-adv-x="239" 
d="M40 351q14 -4 26 -7t24 -7q8 -2 13.5 -7.5t11.5 -12.5q14 -18 19 -37.5t4 -42.5q-1 -49 0 -97.5t2 -96.5v-6q0 -14 -1.5 -22.5t-6 -13t-13 -5.5t-22.5 -1q-17 0 -33 -1t-33 -3t-20 14q-2 5 0 11q6 45 2 89.5t-3 89.5q1 29 0.5 57t-1.5 57q0 20 -0.5 40t-0.5 40
q0 6 -0.5 11.5t1.5 10.5q4 11 12 13q4 0 8.5 -3t6.5 -6q3 -4 3.5 -9t0.5 -10q1 -11 0.5 -22t-0.5 -23zM39 229v-17v-42t0.5 -52t1.5 -47q0 -17 1 -25.5t5 -12.5t13 -4t26 1h5q10 2 13.5 5.5t4.5 12.5v11q-1 35 -1 69t-1 69l-2 36l-2 36q0 20 -13 29q-19 14 -41 14
q-13 0 -12 -14q0 -17 0.5 -34.5t1.5 -34.5zM201 347q-2 -27 -3.5 -53.5t-2.5 -53.5q0 -35 1 -68.5t2 -67.5q1 -17 1 -34.5t1 -34.5q0 -5 -1 -8q-3 -17 -20 -15q-14 3 -13 18q4 31 3 61.5t-3 60.5q-3 59 0 117.5t1 117.5v10t2 9q4 11 12 14q6 2 10.5 -1.5t6.5 -8.5
q4 -7 4 -18t-0.5 -22.5t-0.5 -22.5z" />
    <glyph glyph-name="uni044C" unicode="&#x44c;" horiz-adv-x="194" 
d="M142 74q-1 -10 -0.5 -20t-0.5 -20q-1 -7 -3 -13.5t-4 -13.5q-5 -13 -19 -13q-21 1 -42 1t-42 2q-14 2 -18 8.5t-2 20.5q2 17 3 33.5t2 33.5q1 35 1 69v69q-1 32 -1.5 63t-2.5 63q0 8 -1.5 15t-2.5 15q-1 5 -1.5 8.5t-0.5 8.5q1 9 8 12t15 -2q13 -9 13 -26q1 -11 1.5 -21
t-0.5 -21q0 -15 13 -19q8 -2 14.5 -5.5t13.5 -7.5q24 -11 35 -29.5t13 -43.5q2 -17 2 -34.5t2 -34.5q2 -25 3 -49.5t3 -48.5h-1zM49 149h-3q0 -21 0.5 -41.5t-1.5 -40.5q-1 -14 -0.5 -21.5t4 -11t12 -4.5t22.5 -1q26 0 27 26q1 15 0.5 30.5t-1.5 30.5q-2 26 -3.5 53t-3.5 53
q-2 16 -6 33q-3 13 -11.5 20.5t-19.5 12.5q-12 5 -16.5 2t-4.5 -16q2 -32 2.5 -62.5t2.5 -62.5z" />
    <glyph glyph-name="uni044D" unicode="&#x44d;" horiz-adv-x="223" 
d="M146 176q2 -37 2.5 -73.5t2.5 -74.5q1 -14 -3 -19.5t-18 -7.5q-8 -1 -15 -1h-15q-17 0 -33 0.5t-33 0.5h-9.5t-8.5 2q-8 5 -12 14q-3 11 10 15q6 2 12 3t12 1q14 0 27.5 -0.5t27.5 -0.5q14 1 18 5t4 18q0 40 -0.5 79.5t-0.5 79.5q-1 7 -1 13.5t-1 13.5q0 14 -12 15
q-11 2 -20.5 3t-20.5 3q-26 5 -23 22q3 14 27 13q8 -1 14.5 -2.5t14.5 -2.5q15 -1 14 12q-2 18 -7 34t-19 27q-5 5 -12.5 7.5t-14.5 4.5q-10 2 -19.5 3t-18.5 4q-10 3 -15 14q-2 5 3 10.5t12 7.5q10 2 16 1q14 -3 27 -6t26 -7q15 -5 24 -15t16 -24q11 -23 16 -48t7 -50
q2 -23 1.5 -47t-0.5 -47h-2z" />
    <glyph glyph-name="uni044E" unicode="&#x44e;" horiz-adv-x="306" 
d="M91 237q-1 11 -14 18.5t-23 2.5q-7 -4 -8 -10q-1 -5 -1.5 -10.5t1.5 -10.5q4 -21 2 -41.5t-4 -40.5q-2 -8 -1.5 -17t0.5 -18q2 -23 3 -44.5t2 -44.5q2 -18 -14 -20q-16 0 -19 16v3q2 43 -2 85.5t2 85.5q3 16 1.5 32t-2.5 33q0 11 -1 21.5t-1 21.5q0 22 -1 43t-6 41
q-1 4 -1 11q0 17 11 19q8 2 12.5 -2t7.5 -10q4 -8 4 -15q2 -18 3.5 -36.5t3.5 -36.5q1 -5 0.5 -11t6.5 -8q8 -3 17 -3.5t17 4.5q4 3 5 9t1 11q2 19 7.5 36t18.5 32q10 12 25 20q17 8 29 5t26 -17q23 -21 30.5 -46.5t7.5 -54.5q1 -26 2 -50.5t2 -50.5q1 -27 1 -54t1 -54v-18
t2 -17q3 -23 -12 -41q-7 -8 -16.5 -12t-20.5 0q-13 5 -25.5 4.5t-25.5 -1.5q-15 -2 -27 1q-13 2 -17.5 7t-4.5 18q-1 13 0 26t1 26l-0.5 18t-1 43.5t-2 53.5t-2.5 48zM207 140l0.5 8t0.5 20t-0.5 25t-1.5 23q-1 22 -1.5 43.5t-2.5 42.5q-1 22 -9 43q-4 12 -12 18t-17 5
q-11 -1 -17.5 -7t-10.5 -15q-2 -5 -3 -9t-3 -9q-7 -22 -7.5 -43.5t0.5 -43.5q2 -29 3 -58l2 -58q1 -17 0 -34t-1 -34q0 -10 0.5 -15.5t3 -8.5t8 -4t15.5 -1h38q14 0 16.5 2.5t2.5 16.5v25l-2 34z" />
    <glyph glyph-name="uni044F" unicode="&#x44f;" horiz-adv-x="222" 
d="M54 265l-23 23q-19 23 -18 47.5t21 46.5q18 20 40.5 30t49.5 6q15 -2 20 -7.5t4 -21.5q0 -50 -0.5 -99.5t-0.5 -99.5q0 -31 1.5 -61.5t2.5 -61.5v-27.5t-2 -27.5q0 -7 -5 -15q-5 -6 -12.5 -5.5t-10.5 7.5q-4 8 -4 21q-1 45 -0.5 88.5t-0.5 88.5q0 10 -1 19.5t-3 18.5
q-1 8 -6.5 10.5t-11.5 -2.5q-9 -8 -17.5 -15.5t-14.5 -17.5q-28 -45 -22 -99q2 -21 5 -42t5 -42q1 -2 1 -6q1 -16 -10 -19q-8 -2 -15 2t-9 12q-1 3 -1 6.5v6.5q-3 22 -5.5 43.5t-5.5 43.5q-3 33 5.5 62.5t25.5 57.5q4 7 8.5 14t9.5 15zM117 329q-1 9 -1 18q-1 8 -1 16t-1 14
q-2 14 -13 8q-10 -5 -19.5 -10.5t-17.5 -13.5q-18 -17 -15.5 -29t10.5 -26q3 -4 10 -7.5t15.5 -6.5t16 -3.5t10.5 1.5q8 5 6 13.5t0 16.5v9z" />
    <glyph glyph-name="A" unicode="A" horiz-adv-x="269" 
d="M172 148q1 22 2 43.5t0 43.5q0 26 -1.5 51.5t-2.5 51.5q-1 13 -1 25v25q0 11 0.5 22.5t-0.5 23.5q0 11 -2 13.5t-13 4.5q-24 5 -48 6.5t-48 -7.5q-8 -3 -13 -7.5t-5 -13.5v-27t1 -27q2 -22 3 -43.5t1 -43.5q1 -52 0.5 -103.5t4.5 -103.5q2 -17 2 -33t5 -32
q2 -5 0.5 -10.5t-8.5 -7.5q-16 -5 -20 14q-2 12 -3 24.5t-2 24.5q-2 28 -3.5 55.5t-2.5 55.5q-1 20 -0.5 40t0.5 40q0 11 0.5 21.5t0.5 21.5q-1 22 -1.5 43.5t-2.5 43.5q-7 58 2.5 113t27.5 110q8 25 26 41t41 27q5 2 11.5 3t12.5 1q10 1 19 2t18 5q24 9 27 -17
q1 -22 2 -43.5t1 -43.5q-1 -43 -2 -85t-2 -85q0 -24 1 -48.5t2 -49.5q1 -31 1.5 -62t-0.5 -63q0 -40 -1 -79t-2 -79l-2 -12t-3 -12q-1 -2 -4.5 -4t-5.5 -2q-3 0 -6.5 2t-4.5 5q-3 9 -3 21q0 15 0.5 35.5t0.5 39.5v32v13zM173 548v9.5t-0.5 23.5t-1.5 29.5t-2 26.5t-5 15
t-15 2q-25 -5 -44.5 -17.5t-29.5 -36.5q-8 -20 -13.5 -41t-11.5 -42q-2 -5 -2 -10.5t-1 -10.5q0 -11 3.5 -14.5t14.5 -1.5q20 5 38.5 3t37.5 -4h11q14 0 16.5 3t3.5 17q1 12 1 24v25z" />
    <glyph glyph-name="a" unicode="a" horiz-adv-x="208" 
d="M87 1q-11 0 -22 0.5t-22 1.5q-4 0 -7 -0.5t-7 -0.5q-11 1 -15 5.5t-5 15.5q-1 20 -2 38.5t-2 38.5t-2 39.5t1 39.5q2 36 12 70q12 46 59 66l24 12q10 6 7 18q-6 26 -31 37q-11 4 -21.5 7t-21.5 6q-2 1 -5 0.5t-5 0.5q-5 2 -8.5 5t-2.5 8q1 6 5 7.5t9 1.5
q32 -2 57.5 -13.5t42.5 -42.5q14 -24 19.5 -49.5t7.5 -51.5q2 -22 2.5 -43.5t-0.5 -43.5q-1 -37 -3 -73.5t-4 -73.5q0 -9 -1 -13q-2 -11 -5 -13.5t-14 -2.5q-10 1 -20 1t-20 1v1zM83 24v-1q5 0 9 -0.5t9 -0.5q11 0 14 3t5 14q1 9 1 18.5t2 18.5q8 40 7.5 80t-2.5 80
q-1 14 -3.5 28.5t-5.5 28.5q-3 16 -20 10q-17 -8 -30.5 -18.5t-19.5 -29.5q-7 -20 -13 -38.5t-13 -38.5q-1 -4 -1 -11q-1 -33 4.5 -65.5t10.5 -64.5q3 -16 20 -14q6 0 12.5 0.5t13.5 0.5z" />
    <glyph glyph-name="B" unicode="B" 
d="M114 474q16 -14 30.5 -27t25.5 -31q24 -40 31 -86q3 -20 6 -40.5t6 -41.5q1 -7 1.5 -13.5t-0.5 -13.5q-1 -14 -2 -27.5t-2 -27.5v-143l-2 -14t-3 -13q-3 -9 -10 -11.5t-14 3.5q-11 11 -23.5 12t-25.5 2h-78h-10.5t-11.5 2q-10 2 -14 7t-4 16q-1 38 -1.5 76t-0.5 76
q-1 49 -0.5 97t-1.5 97q-2 33 -1 66t3 66q2 35 0 70.5t-3 70.5q0 5 -1 10t0 10q0 26 28 26q23 1 44 -4t42 -13q5 -2 10.5 -6t8.5 -9q17 -22 27.5 -46t8.5 -53q-1 -19 -7.5 -34t-20.5 -27q-8 -6 -16.5 -12t-18.5 -14zM174 143q-1 29 -2 64.5t-3 72.5q-1 19 -3.5 38t-7.5 38
q-9 30 -27 53.5t-50 34.5q-8 3 -16.5 8t-19.5 0q-1 -10 -2.5 -19t-1.5 -19v-103.5t1 -103.5q0 -37 0.5 -73.5t1.5 -73.5q1 -16 5 -19t21 -1q8 2 16.5 1.5t16.5 -1.5q14 -1 27.5 -2t27.5 -2q9 -1 11.5 2t2.5 12q1 21 1.5 42.5t0.5 50.5zM45 562q0 -10 -0.5 -21.5t-0.5 -24.5
q0 -12 14 -14q17 -1 31.5 2.5t28.5 14.5q9 7 14.5 15.5t0.5 21.5q-2 5 -1 9.5t0 9.5q-2 29 -19.5 50.5t-45.5 28.5q-17 4 -21.5 -0.5t-3.5 -21.5t1.5 -33.5t1.5 -36.5z" />
    <glyph glyph-name="b" unicode="b" horiz-adv-x="223" 
d="M47 538q-1 -17 -1 -33.5t-1 -33.5q0 -5 -1 -9.5t0 -9.5q0 -9 4 -16t13 -9q5 -2 8.5 -3t7.5 -3q60 -19 74 -83q7 -31 11 -63t2 -64t-3 -63.5t-2 -63.5q-1 -12 0.5 -24t2.5 -23v-17q-1 -15 -6.5 -19.5t-19.5 -0.5t-27.5 4.5t-27.5 -1.5q-12 -1 -24 -1h-23q-14 0 -19 5
t-5 18q1 63 2.5 124t-0.5 124q-2 86 2 171t6 171q1 5 0.5 10t1.5 10q1 3 3.5 6.5t5.5 4.5q12 5 16 -8q3 -12 3 -25zM39 170q-1 -32 -1.5 -61.5t4.5 -58.5q2 -15 6.5 -20t21.5 -5l22 2l22 2t14.5 4t4.5 14q1 12 1.5 24.5t0.5 25.5q1 35 1.5 69t-1.5 69q-2 28 -6.5 55.5
t-9.5 54.5q-5 22 -19 35t-34 21q-21 6 -24 -15q-1 -8 -1.5 -15.5t-0.5 -15.5q0 -13 0.5 -26t0.5 -26q-1 -35 -1 -68t-1 -65z" />
    <glyph glyph-name="C" unicode="C" horiz-adv-x="264" 
d="M47 464q-2 -19 -3 -37t-2 -37q-1 -14 -0.5 -27.5t1.5 -27.5v-57.5t1 -57.5q1 -25 1.5 -50t1.5 -51q1 -17 1 -34t1 -34q1 -11 4 -15t14 -4q45 -2 91 0q14 0 13 16q-1 26 -2 53t-2 53v9.5t1 9.5t4.5 9t8.5 2q5 -1 8.5 -4t6.5 -6q2 -1 2 -8q2 -36 2.5 -72t2.5 -73
q0 -15 -13 -22q-9 -5 -17.5 -7.5t-19.5 -0.5q-15 2 -30 3t-30 3q-13 1 -25.5 1.5t-25.5 3.5q-15 3 -19 9t-5 21q-1 36 -2 71.5t-3 71.5v35q1 32 0 64t-7 64q-2 9 -1.5 18t0.5 18q-1 45 2.5 90t9.5 90q3 25 14.5 45.5t29.5 37.5q20 17 41.5 29.5t47.5 16.5q8 1 15 1.5t15 0.5
q14 -1 19.5 -7t5.5 -21q0 -4 -0.5 -7t-0.5 -7v-35v-14t-2 -13q-1 -4 -5 -7.5t-8 -3.5t-8.5 3t-6.5 7t-2.5 8.5t-1.5 9.5q-2 11 -2.5 20.5t-1.5 20.5q-1 12 -14 10q-23 -3 -43 -17q-33 -23 -48 -55t-15 -72v-41h1z" />
    <glyph glyph-name="c" unicode="c" horiz-adv-x="208" 
d="M37 262q-2 -19 -4 -41.5t-1 -45.5q2 -35 4.5 -69.5t5.5 -69.5q1 -8 4 -10.5t12 -1.5q9 0 18 0.5t18 0.5q14 0 17.5 4t4.5 18v47v8t1 8q1 5 4 9t8 3q4 -1 8 -3.5t6 -5.5q2 -5 2.5 -10t0.5 -10q1 -16 1 -31.5v-31.5v-11q-3 -26 -28 -20q-37 9 -78 -4q-3 0 -7 -2
q-21 -3 -21 19v26.5t-1 26.5q-2 49 -6.5 97t2.5 97q1 7 0 13.5t-1 13.5q0 29 11.5 52t29.5 45q14 17 31.5 24t37.5 11q14 2 19.5 -1.5t7.5 -17.5q2 -18 2.5 -36.5t0.5 -36.5q0 -4 -2.5 -7.5t-4.5 -6.5q-5 -5 -10.5 -4t-7.5 8q-2 5 -2 9v9v21t-1 21q-2 25 -22 13
q-54 -29 -60 -87q-1 -9 -0.5 -18t0.5 -22z" />
    <glyph glyph-name="D" unicode="D" 
d="M95 1q-15 0 -30 -0.5t-30 0.5q-13 1 -17 6.5t-2 17.5q3 31 2.5 61t-2.5 60q-2 34 -2 67.5t-1 67.5q-1 39 -2 77.5t-1 77.5q0 20 1.5 41t1.5 41q-1 32 -0.5 64.5t-3.5 64.5q-4 29 4 36.5t36 3.5q18 -2 36 -5.5t35 -8.5q26 -7 43 -24t28 -40q15 -29 13 -64q-1 -58 0 -116
q1 -32 1.5 -63t3.5 -63q5 -47 5 -92.5t1 -92.5q0 -20 2 -41t2 -41q1 -27 -8.5 -35t-35.5 -5q-20 2 -40 3t-40 3v-1zM172 183q0 14 0.5 34.5t-0.5 42.5q0 16 -1.5 31.5t-2.5 31.5q-2 41 -4 81t-4 82q0 8 0.5 17.5t3.5 17.5q11 26 4.5 48.5t-20.5 43.5q-12 17 -32 25
q-14 5 -29 8l-30 6q-13 3 -14 -13v-8v-194t1 -195q0 -29 0.5 -58.5t1.5 -59.5q1 -20 1.5 -38.5t1.5 -38.5q0 -13 13 -13l99 -3q11 0 14 3t4 14v9.5t-1 9.5q-1 26 -2.5 53.5t-3.5 62.5z" />
    <glyph glyph-name="d" unicode="d" horiz-adv-x="236" 
d="M174 362q1 -32 1.5 -62.5t0.5 -62.5q1 -14 0.5 -27t-0.5 -27q-1 -36 -1 -72v-71q0 -14 -3 -24q-4 -14 -8.5 -16t-18.5 2q-12 3 -21 2q-20 -4 -39 -3t-39 1q-19 0 -24 5t-6 23q-1 26 -1.5 51.5t0.5 51.5q2 29 0.5 56.5t-5.5 54.5q-5 38 6.5 70t35.5 60q11 13 24.5 21.5
t29.5 14.5q18 6 27 9.5t13 9.5t4 16.5t-1 29.5q-1 29 0.5 58t2.5 58q0 10 3 16q4 8 11 10q5 1 8.5 -2.5t4.5 -8.5t0.5 -9.5t-0.5 -9.5q-1 -20 -1.5 -38.5t-0.5 -37.5q-1 -38 -1 -74.5t-1 -74.5h-1zM150 240h-1q0 32 -0.5 65t-0.5 65q0 7 -1 11q-1 14 -14 10
q-19 -5 -35.5 -14t-28.5 -25q-38 -48 -30 -109q2 -24 4.5 -48.5t0.5 -48.5q-2 -16 -2.5 -31.5t0.5 -31.5q0 -11 1 -21.5t3 -21.5q1 -13 16 -15t30 -1.5t29 6.5q17 7 21.5 12.5t4.5 24.5q0 21 -0.5 42t0.5 42q0 23 1 44.5t2 44.5z" />
    <glyph glyph-name="E" unicode="E" horiz-adv-x="242" 
d="M42 414q0 -45 -1 -90.5t0 -90.5q0 -45 1.5 -89t3.5 -89q1 -14 5.5 -18.5t18.5 -6.5q9 -2 19 0q17 5 35 4t35 -2q12 -1 19.5 -7t6.5 -14q0 -9 -10 -14.5t-21 -1.5q-17 4 -32.5 4t-32.5 -1q-15 0 -30.5 1t-30.5 3q-11 2 -14.5 7t-3.5 16q0 51 -0.5 102t-1.5 103
q0 14 -0.5 28t-0.5 28q0 51 -0.5 101.5t1.5 101.5q1 20 3.5 39t6.5 38q5 23 18 43.5t31 36.5t39.5 26t44.5 13q16 1 35 -2q13 -2 12 -15q-1 -12 -14 -14q-5 -1 -11 -1h-11q-27 0 -48 -15q-24 -18 -41 -41t-25 -52q-3 -13 -3.5 -26.5t-2.5 -26.5t10 -13q14 0 28 -4t28 1
q18 4 23 -14q2 -8 -2 -15.5t-13 -9.5q-8 -2 -18 0l-20 2t-20 1q-11 0 -14 -3t-2 -15q0 -2 0.5 -4t0.5 -4h-1z" />
    <glyph glyph-name="e" unicode="e" horiz-adv-x="194" 
d="M3 97q0 54 0.5 106.5t0.5 106.5q0 20 -0.5 41t-1.5 41q0 8 0.5 15.5t9.5 12.5q8 5 14.5 1t13.5 -9q11 -7 21.5 -13t21.5 -14q56 -41 53 -113q-1 -26 -1 -50.5t-1 -50.5v-15q-2 -14 -6 -18t-17 -4q-15 0 -29.5 1t-28.5 2q-14 0 -17.5 -3t-3.5 -16q-2 -36 0 -74
q0 -16 4 -19t21 -4q9 0 18.5 0.5t18.5 -1.5q11 -2 22 -8q5 -4 4 -10t-8 -8q-9 -4 -15 -1q-17 4 -33 3.5t-33 -1.5q-16 0 -22.5 5.5t-6.5 22.5v46q0 13 1 28zM103 227v35q-1 21 -3.5 41.5t-13.5 39.5q-13 22 -38 35q-16 6 -16 -10q0 -3 0.5 -5.5t0.5 -5.5q-2 -34 0.5 -67.5
t-2.5 -68.5q-1 -9 0.5 -18t1.5 -18q0 -19 18 -22q5 -1 8.5 -1.5t7.5 -1.5q32 -4 35 28q1 10 1 19.5v19.5z" />
    <glyph glyph-name="F" unicode="F" horiz-adv-x="250" 
d="M13 104q0 47 -0.5 93t-0.5 93q-1 51 -1 102v102v8t-1 9q-7 28 -2 55t13 53q4 14 14.5 27t24 22.5t29 16t29.5 6.5h32t33 -1q8 0 16 -3q13 -3 11 -17q0 -11 -13 -13q-5 -1 -14 -1h-32.5t-32.5 1q-16 0 -29 -10q-15 -14 -26 -29.5t-13 -36.5q-2 -11 -3.5 -20t-2.5 -20
q-2 -19 2 -23t23 -6q8 0 15.5 -0.5t15.5 -0.5t12 -1q6 -1 14.5 -8.5t9.5 -12.5t-6.5 -10t-17.5 -6q-7 0 -13 0.5t-13 0.5q-5 1 -9.5 1h-9.5q-14 0 -17.5 -3.5t-4.5 -17.5q0 -14 0.5 -27t1.5 -27q5 -94 4.5 -185.5t-5.5 -185.5v-8t-2 -8t-5 -7.5t-5 -3.5q-5 -1 -10 1t-7 6
q-6 10 -6 24q0 17 0.5 35t1.5 36z" />
    <glyph glyph-name="f" unicode="f" horiz-adv-x="183" 
d="M36 214q0 -3 -1 -6.5t0 -6.5q5 -23 3 -47t-2 -47q0 -20 1.5 -39.5t3.5 -39.5q0 -4 0.5 -7.5t0.5 -6.5q-1 -10 -14 -12q-11 -2 -15 8q-3 6 -3 14q-2 18 -3 36.5t-1 37.5q1 70 2.5 140t0.5 140q0 22 2 43l4 42q4 68 62 109q11 8 22 15.5t25 11.5q9 4 16 5q6 1 12 0t10 -8
q5 -9 -14 -17t-34.5 -18.5t-29.5 -24.5t-23 -30.5t-11 -36.5q-1 -7 -2.5 -13.5t-2.5 -13.5q-2 -11 1 -15t13 -6q11 -2 21 -3t20 -3q24 -3 23 -15q-2 -17 -25 -15q-10 1 -19.5 1.5t-19.5 0.5q-9 0 -13 -3t-4 -13q-1 -15 -1 -30v-31q0 -3 0.5 -6.5t0.5 -6.5q-1 -16 -2 -31
q-1 -13 -2 -27t-2 -25z" />
    <glyph glyph-name="G" unicode="G" horiz-adv-x="292" 
d="M179 168v61q-2 34 -3.5 67.5t-2.5 67.5q0 15 1.5 30t3.5 31q0 4 0.5 8t0.5 8q0 13 -12 12q-11 0 -22 -0.5t-22 -1.5q-5 -1 -10 -1.5t-9 1.5q-8 5 -10 15q-1 3 2 7t6 6q11 5 26 7q31 3 64 3q16 0 22 -6.5t5 -22.5q-2 -19 -4 -37.5t-2 -36.5q0 -26 1.5 -52.5t2.5 -52.5
q1 -17 0 -34.5t-1 -34.5q-1 -36 -1.5 -72t-0.5 -72q0 -8 1.5 -16.5t3.5 -16.5q2 -20 -3.5 -27t-25.5 -10q-32 -4 -64.5 -5t-65.5 1h-9.5t-9.5 1q-15 3 -20 8.5t-6 20.5q-2 18 -2 36t-1 36q-2 45 -3 88.5t-1 88.5q0 25 1.5 49.5t2.5 50.5v27.5t1 27.5q0 23 -0.5 45.5
t1.5 45.5q2 45 22.5 80.5t55.5 63.5q12 10 25.5 15.5t30.5 4.5q8 0 16.5 0.5t16.5 -0.5q13 -2 21 -6q2 -1 4.5 -4.5t2.5 -5.5q-2 -10 -10 -13q-7 -3 -19 -1q-34 3 -57.5 -12t-41.5 -41q-25 -36 -29 -77q-2 -21 -2.5 -41.5t1.5 -41.5q2 -17 0.5 -33t-2.5 -33q-1 -21 -2 -41.5
t-1 -41.5q0 -46 0.5 -91.5t1.5 -91.5q1 -16 2.5 -31.5t3.5 -31.5q1 -14 15 -16q10 -1 19.5 -2t19.5 0q13 0 26 0.5t26 1.5q12 2 14.5 4.5t2.5 15.5q1 29 0.5 59t-0.5 60h2z" />
    <glyph glyph-name="g" unicode="g" horiz-adv-x="208" 
d="M125 -82v31.5t-1 31.5q0 11 -3 14t-14 4q-10 2 -19.5 2h-19.5q-7 1 -13.5 0.5t-13.5 1.5q-12 2 -16.5 6.5t-5.5 16.5q-3 45 -5.5 89.5t-5.5 89.5q-1 15 -2.5 30.5t-0.5 30.5q0 14 2.5 27t4.5 27q5 22 17.5 37t31.5 26q8 5 16 9.5t16 8.5q15 5 31 5q7 0 12 -4t5 -12
q2 -18 3.5 -36t0.5 -35q-2 -23 -1.5 -45t2.5 -45q3 -37 4 -74.5t2 -75.5q2 -38 1.5 -74t-0.5 -74q0 -16 -1 -31.5t-3 -31.5q-2 -11 0.5 -21t4.5 -20q7 -28 -21 -24q-24 3 -50 -5q-19 -6 -41 -1q-16 3 -17 18q-1 18 -2 35.5t-2 35.5q0 11 5 23q4 8 11.5 7.5t11.5 -8.5
q2 -4 2.5 -8.5t0.5 -9.5q1 -12 0.5 -24t1.5 -23q2 -14 6 -17t18 -1l14 2t14 3q11 3 14.5 6.5t3.5 15.5q1 17 0.5 33t-0.5 33h1zM114 297v68q0 6 -4 8t-9 0q-24 -12 -40 -29.5t-19 -45.5q-2 -16 -3.5 -31.5t-1.5 -31.5q1 -41 2 -80.5t3 -80.5l2 -14t3 -14q2 -15 17 -17
q10 0 20 -0.5t20 0.5q11 0 16 4.5t5 16.5q0 25 -0.5 49.5t-1.5 50.5q-1 18 -3 43.5t-3.5 48.5t-2 39z" />
    <glyph glyph-name="H" unicode="H" 
d="M44 626q2 -28 2.5 -55.5t1.5 -54.5q1 -13 3.5 -15.5t16.5 -2.5h38.5t38.5 1q11 0 15 4t4 16q0 14 -1 27.5t-2 27.5q0 23 -0.5 46.5t-0.5 47.5q0 5 2 13q4 11 18 11q12 0 15 -13q2 -5 2 -9.5v-9.5q1 -26 1 -51t1 -50q1 -31 2.5 -61t2.5 -61q2 -51 3 -102.5t3 -103.5l2 -30
t3 -30q5 -38 1.5 -75t-1.5 -74v-6q-2 -8 -7.5 -13.5t-12.5 -4.5q-8 2 -13.5 7.5t-4.5 13.5q0 11 1 20.5t1 20.5q2 39 1.5 77.5t-5.5 76.5q-2 15 -1 30.5t0 30.5q-2 38 -3 75.5t-2 75.5q-1 2 -1 6q-2 19 -6 23.5t-24 5.5q-17 1 -35 0.5t-36 -1.5q-11 -1 -15 -4.5t-6 -15.5
q-2 -10 -2 -16q1 -23 2 -45.5t2 -45.5q1 -35 2 -68.5t2 -68.5q1 -29 1 -58v-58q0 -18 -1.5 -36t3.5 -35v-3q2 -24 -15 -26q-7 -1 -13 5t-8 16q-2 14 -2.5 29t-0.5 29q0 31 0.5 61.5t0.5 61.5q0 41 -3 80q-1 17 -2.5 34.5t-1.5 34.5q-1 51 -0.5 102t-0.5 102q0 32 -1 63
t-2 63q0 13 3 25q5 17 21 13q14 -3 14 -18v-55z" />
    <glyph glyph-name="h" unicode="h" horiz-adv-x="195" 
d="M34 305q1 -32 1.5 -65.5t0.5 -68.5q0 -26 -1.5 -51t-2.5 -51q-1 -9 -0.5 -17.5t0.5 -16.5q0 -9 -0.5 -17.5t-1.5 -16.5q-2 -11 -13 -11q-13 2 -13 12v47.5t2 47.5q2 26 4 51t0 51q-3 43 -3 87q-1 28 -0.5 55.5t0.5 55.5q0 40 -0.5 79t-1.5 79v17t2 17q2 9 11 13
q6 2 9.5 -2t5.5 -10q3 -17 3 -34q0 -29 -0.5 -59t-0.5 -59q0 -17 4 -21.5t21 -8.5q9 -2 18 -5t17 -7q28 -12 36 -43q5 -20 9 -41t3 -42q-1 -48 -1 -95t-1 -95q0 -18 1 -35.5t2 -35.5q0 -18 -14 -18q-15 0 -16 17v5v77v99.5t-2 100.5q0 16 -4.5 32t-9.5 32q-5 14 -19 21.5
t-30 5.5q-8 -2 -10 -10q-2 -4 -2 -8.5t-1 -9.5q0 -11 -0.5 -22.5t-1.5 -25.5z" />
    <glyph glyph-name="I" unicode="I" horiz-adv-x="111" 
d="M49 468q-1 -20 -1 -40t-1 -40q-1 -11 -1.5 -22t-2.5 -22q0 -5 -0.5 -10.5t-0.5 -10.5v-184q1 -30 1 -59.5t1 -59.5q0 -11 -11 -17q-11 -7 -23 2q-8 8 -7 17q5 50 3.5 99.5t0.5 100.5q0 14 -1 27.5t-1 27.5t-1 29t1 29q6 56 5 112t1 113q0 20 -1 40.5t-2 41.5q0 8 0.5 15
t1.5 15q2 10 6 15q7 9 17 7.5t14 -12.5q1 -4 1 -14q1 -44 1 -87.5v-87.5v-25z" />
    <glyph glyph-name="i" unicode="i" horiz-adv-x="99" 
d="M39 142q1 -32 1 -65t1 -65v-6q0 -6 -2.5 -10.5t-9.5 -5.5q-16 -2 -19 14q-1 3 -0.5 6.5t0.5 7.5q0 30 0.5 60.5t0.5 61.5v8t1 9q5 57 3.5 114.5t-4.5 114.5v6q0 17 13 19q15 0 16 -17q2 -34 3.5 -67.5t1.5 -68.5q0 -29 -1.5 -58t-3.5 -58h-1zM48 473q0 -8 -5 -13.5
t-11 -5.5q-9 0 -16 8.5t-6 19.5q2 13 15 13q10 1 17 -6t6 -16z" />
    <glyph glyph-name="J" unicode="J" horiz-adv-x="291" 
d="M230 492q-1 -19 -1.5 -37.5t-0.5 -37.5q0 -29 0.5 -57t-0.5 -56q0 -21 -1 -42t-2 -41q-2 -22 -3 -43t-3 -42q-2 -27 -15 -48t-31 -41q-24 -28 -54.5 -37.5t-63.5 -14.5q-9 -2 -19.5 2t-19.5 8q-4 2 -6.5 7.5t-3.5 10.5q-1 10 -0.5 19.5t-0.5 19.5q-1 20 -1.5 39t-1.5 38
q0 6 1 11.5t3 10.5t7.5 7.5t11.5 2.5q12 -1 15 -14q1 -4 1 -7t1 -7q1 -23 1.5 -45.5t2.5 -45.5q0 -11 3.5 -14t14.5 -4q21 -2 39.5 4.5t32.5 22.5l10 10l10 10q11 11 17.5 24t6.5 30q2 48 5 95.5t5 95.5q1 31 1 61.5t1 62.5l2 62t1 62q0 23 -1 45.5t-1 45.5q-1 12 7.5 18
t17.5 0q4 -2 7 -7t4 -10q3 -21 3 -44q0 -16 -0.5 -38.5t-1 -42.5t-0.5 -34.5v-14.5z" />
    <glyph glyph-name="j" unicode="j" horiz-adv-x="228" 
d="M148 183l-3 51q0 8 -0.5 16t-0.5 16q-1 12 -0.5 24.5t-0.5 24.5q-1 14 -1.5 27.5t-1.5 27.5q-1 8 -1.5 15.5t0.5 15.5q0 13 -0.5 26t-1.5 26v25v34v42v9.5t-1 9.5q-1 3 1.5 9t4.5 8h4q2 0 3 -0.5t3 -0.5q9 1 12.5 -4.5t3.5 -12.5q1 -26 0 -51q-2 -19 -1.5 -37.5
t1.5 -38.5q1 -7 0.5 -13.5t-0.5 -12.5v-16t1 -16v-10.5t1 -10.5q1 -6 1.5 -11.5t1.5 -10.5v-23v-27t1 -27l2 -24t1 -24q1 -9 0.5 -17.5t-0.5 -16.5t0.5 -14.5t0.5 -14.5q-2 -26 -9 -51q-2 -3 -1.5 -6t-1.5 -6q-2 -5 -4.5 -9.5t-4.5 -9.5q-4 -13 -11.5 -22.5t-15.5 -19.5
q-5 -6 -11.5 -10.5t-13.5 -9.5q-3 -2 -7 -3t-9 -3q-11 -2 -23 -5t-24 -5q-13 -3 -18 11q-2 4 -4 6q-6 6 -6 14q-2 6 0 11q3 14 1.5 27.5t-3.5 27.5q-2 20 -7 35q-2 5 -0.5 9.5t4.5 7.5q9 6 18 1q10 -5 11 -15q8 -35 8 -69v-16q0 -7 6 -11q9 -8 18 -6.5t17 5.5q5 2 11 8
t12 12.5t11 12.5q4 4 6 9q3 8 6 15l6 14q1 3 1 6.5t1 6.5q1 5 1.5 9.5t2.5 9.5q2 8 2 16v16v14h1z" />
    <glyph glyph-name="K" unicode="K" horiz-adv-x="292" 
d="M131 498q30 -9 48.5 -26t28.5 -43q8 -21 13 -43t5 -45q1 -14 0.5 -27.5t-0.5 -27.5q0 -21 0.5 -42t0.5 -43q0 -16 -0.5 -32t-0.5 -33v-115q0 -14 -9.5 -20t-19.5 2q-3 2 -5 5.5t-4 6.5q-2 4 -2 14q1 32 1 63t1 63q1 45 2 88t-1 88q-1 22 -6.5 44t-11.5 43
q-8 25 -27.5 35.5t-42.5 15.5q-9 2 -18.5 2.5t-19.5 2.5q-9 1 -11 -9v-16q-2 -19 -3 -37.5t-2 -36.5q-1 -8 -1.5 -15t0.5 -15q3 -33 2.5 -66t-2.5 -66q-1 -20 0 -41t-1 -41q-2 -23 -2 -46.5t1 -46.5q2 -11 0 -22q-2 -14 -14 -14q-14 -2 -17 11q-2 5 -3 9t-1 9q0 28 1 55
t0 55q-1 45 2.5 90t-1.5 91q-1 5 -0.5 10.5t0.5 10.5q1 23 1.5 45.5t0.5 45.5q1 48 1 96v96q0 8 -0.5 16t-1.5 16q-1 5 -1 8.5v8.5q2 17 17 19t20 -15q3 -11 3 -24q1 -29 1.5 -57.5t1.5 -57.5q0 -12 4 -15.5t16 -1.5q4 1 7 2t7 1q23 -2 37 10.5t27 29.5q26 32 26 70
q0 16 3 33q1 5 2 10.5t4 9.5q2 3 7 5t9 2q3 0 6 -3.5t6 -6.5q1 -2 1 -4v-4q-1 -17 -1 -34.5t-2 -34.5q-5 -32 -23.5 -55.5t-41.5 -43.5q-3 -2 -6.5 -4.5z" />
    <glyph glyph-name="k" unicode="k" horiz-adv-x="211" 
d="M29 177l3 -153q0 -5 0.5 -10.5t-1.5 -10.5q-2 -3 -5.5 -6t-6.5 -3q-2 0 -5.5 3.5t-4.5 6.5q-2 5 -1.5 11t0.5 12q-1 49 -2 97.5t-2 97.5q0 36 0.5 72.5t1.5 72.5q0 51 0.5 100.5t0.5 100.5q0 5 -1 10.5t-1 10.5q-2 17 11 17q6 0 10.5 -3.5t5.5 -11.5q3 -12 1 -28
q-3 -25 -2.5 -49t1.5 -49q1 -14 0.5 -28.5t-0.5 -29.5q0 -23 -0.5 -46t-0.5 -46q0 -14 5 -17.5t17 0.5q17 5 26.5 17t13.5 28q3 13 3 26t2 27q0 5 -0.5 9t1.5 9q1 3 4.5 6t6.5 3q8 0 12 -8q4 -7 4 -17q-1 -14 -2 -27.5t-3 -27.5q-3 -26 -19 -43q-8 -8 -7.5 -12.5t8.5 -11.5
q23 -21 32 -47.5t10 -56.5t2 -59.5t2 -58.5q0 -9 1.5 -17.5t1.5 -17.5v-8.5t-2 -8.5q-4 -7 -12 -7q-3 0 -5.5 2.5l-4.5 4.5q-2 3 -2 6.5t-1 6.5q-1 20 -2 39.5t-1 39.5q0 32 -3 63t-11 62q-12 48 -59 45q-11 0 -15 -3.5t-4 -15.5q-2 -17 -1.5 -34t-0.5 -34h1z" />
    <glyph glyph-name="L" unicode="L" horiz-adv-x="236" 
d="M10 125q-1 23 -2.5 50t-2.5 56q0 15 1.5 29.5t2.5 29.5v321q0 10 -1 20l-2 20q0 5 -0.5 9.5t-0.5 9.5q0 21 18 23q18 0 20 -21q2 -24 3 -48t1 -47q0 -29 -1 -58.5t-1 -58.5q-1 -45 -1 -90.5v-91.5v-127q0 -21 0.5 -42t1.5 -42q0 -3 0.5 -5.5t1.5 -5.5q2 -13 6 -17.5
t18 -5.5q17 -2 33.5 -2t33.5 -1h11.5t10.5 -1q11 -3 13 -16q0 -13 -12 -16q-4 -2 -8 -2h-8q-29 2 -58.5 3t-58.5 3q-19 1 -19 24v100z" />
    <glyph glyph-name="l" unicode="l" horiz-adv-x="194" 
d="M7 480q0 29 0.5 58.5t1.5 58.5q0 6 1 9q2 5 4.5 8.5t8.5 2.5q11 -2 11 -13v-49.5t1 -49.5q0 -15 -0.5 -30t-0.5 -30v-57q-3 -59 -3.5 -117.5t0.5 -117.5v-25.5t-1 -26.5v-33q0 -15 1 -23t5 -12t12 -6t23 -3q11 -1 22 -0.5t22 0.5q15 0 19 -12q2 -6 -2 -12t-12 -8
q-4 -2 -8 -2h-8q-20 2 -39.5 7t-39.5 3q-19 -1 -19 23q-1 31 -1 61v60q0 33 1 66.5t1 67.5q0 25 -0.5 50t-0.5 51l0.5 11t0.5 26.5v33v30.5z" />
    <glyph glyph-name="M" unicode="M" horiz-adv-x="375" 
d="M157 634q5 5 9.5 9t9.5 9q18 19 40.5 29t47.5 16q4 1 8 1h8q11 -2 17 -11t4 -20q-1 -8 -2.5 -15t-1.5 -15v-90.5t1 -91.5q1 -45 2 -88t2 -87q0 -25 -1.5 -49.5t-1.5 -50.5q0 -45 3 -88q1 -17 2 -33t3 -33q2 -23 -19 -26q-9 -1 -16 5.5t-7 16.5q0 12 1 23.5t0 23.5
q-1 32 -2.5 65t-0.5 65q2 88 -0.5 173.5t-1.5 172.5v39t-1 39v11q-4 36 -32 15q-14 -10 -26 -22.5t-23 -25.5q-3 -4 -3.5 -10t-0.5 -12v-129.5t1 -130.5q0 -7 1 -13.5t2 -14.5v-8t-2 -7q-4 -8 -12.5 -12t-15.5 -2q-15 5 -13 25q1 13 2 25t1 25l-2 110t-2 111q0 15 -4 29.5
t-14 27.5t-26 23t-41 16q-4 -11 -3 -23t2 -23q1 -20 2.5 -40t1.5 -40q1 -58 0 -115.5t1 -114.5q2 -49 -1 -97t0 -97q2 -22 2.5 -44t2.5 -44q1 -19 -20 -21q-10 -1 -16 4.5t-6 14.5q0 3 0.5 6t0.5 5q0 8 1 17t0 17q-5 55 -2 110t2 111v93t-2 93q-1 39 -3 78.5t-4 78.5
q-1 13 -1 25.5t2 24.5q3 20 22 19q9 0 18 -1t18 -4q13 -4 22.5 -8t18.5 -9.5t20 -14t28 -21.5z" />
    <glyph glyph-name="m" unicode="m" horiz-adv-x="321" 
d="M119 383q10 25 20.5 29.5t33.5 -3.5q8 -4 12 -5q76 -35 79 -115q2 -57 2.5 -112t-3.5 -111q-1 -12 0 -24t1 -25q0 -12 -4.5 -19.5t-11.5 -5.5q-12 1 -12 26l2 78t1 78q0 31 -1 62t-3 62q-2 32 -19.5 52t-45.5 33q-15 7 -18 -11q-2 -5 -2 -9v-9l-4 -78t-3 -78
q-1 -45 -0.5 -88.5t0.5 -88.5q0 -2 0.5 -5t-0.5 -5q-2 -16 -15 -16q-11 1 -13 15q0 8 1 15t0 15q-3 45 -1.5 88.5t3.5 88.5q3 48 -3 96q-2 16 -8.5 29t-15.5 25q-8 12 -21 15l-26 6q-2 1 -5.5 -2t-4.5 -5q-2 -5 -4 -11t-1 -12q0 -48 1 -94t2 -94q0 -35 0.5 -71t0.5 -71
q0 -13 -4 -24q-1 -2 -4.5 -4.5t-5.5 -1.5q-3 0 -6.5 2.5t-4.5 5.5q-2 5 -2.5 10.5t-0.5 10.5q0 8 0.5 17t1.5 18q1 42 2 83t1 83q0 20 -1 40t-1 40q-1 22 -1.5 43.5t-0.5 42.5q1 14 5.5 18.5t18.5 2.5q20 -2 38 -7t35 -16q4 -2 7.5 -4t8.5 -5z" />
    <glyph glyph-name="n" unicode="n" horiz-adv-x="209" 
d="M152 96q1 -22 1 -43v-43q1 -4 1.5 -7t-0.5 -7q-2 -13 -14 -13t-15 12q-1 3 -1 8v79v113q0 17 1 33t2 33q0 13 -0.5 25.5t-2.5 24.5q-5 28 -23 45t-45 21q-17 3 -17 -14q1 -18 1.5 -36.5t0.5 -37.5q0 -28 0.5 -56t-0.5 -57q-1 -24 -2.5 -48.5t-2.5 -48.5q-1 -15 0 -30
t1 -30q-1 -5 -1.5 -10.5t-3.5 -9.5q-2 -3 -6.5 -5t-8.5 -2q-2 0 -4.5 4t-4.5 7q-1 1 -1 8q2 34 2.5 67t2.5 67q3 47 3.5 93.5t-3.5 93.5l-2 30l-2 30q-2 30 26 20q11 -3 21.5 -7t21.5 -6q19 -3 34 -14.5t25.5 -27t16 -33t5.5 -33.5t-0.5 -31.5t-0.5 -31.5v-46t-1 -46
q0 -10 -1 -19.5t-2 -19.5z" />
    <glyph glyph-name="N" unicode="N" horiz-adv-x="292" 
d="M181 357v28.5t1 28.5q1 16 2 31.5t3 31.5q0 3 0.5 6.5t-0.5 6.5q-4 42 -3 82.5t2 81.5q0 11 3 22q2 8 8 12.5t14 3.5q15 -3 15 -21q-5 -81 -4 -161t-3 -161q-2 -53 -0.5 -105.5t3.5 -105.5q0 -27 1.5 -53.5t3.5 -53.5v-8t-2 -8q-3 -9 -10 -13t-15 -1q-8 2 -12.5 9.5
t-1.5 15.5q5 20 4 39.5t-2 39.5q-1 73 -6 145q0 5 -0.5 11t-3.5 10q-26 35 -41 74t-29 80q-11 30 -21.5 60.5t-27.5 62.5q-2 -6 -3 -9.5t-1 -7.5q-1 -38 -0.5 -76.5t0.5 -76.5q-1 -33 -1.5 -66t-0.5 -65q1 -53 1.5 -104.5t1.5 -103.5q0 -6 1 -11.5t1 -10.5q1 -10 -4.5 -17
t-14.5 -8q-10 -1 -16.5 5.5t-6.5 16.5q0 26 0.5 52t0.5 52v121v41q0 21 -0.5 42t-0.5 42v74.5t2 73.5q2 39 -0.5 78t-7.5 78q-3 12 3 20q8 11 20 8.5t17 -15.5q11 -26 22 -56q15 -38 30 -76.5t29 -76.5q9 -24 18 -48.5t18 -49.5q2 -5 4.5 -9.5t4.5 -9.5q1 1 2 1t3 1z" />
    <glyph glyph-name="O" unicode="O" horiz-adv-x="291" 
d="M225 284q-2 -41 -3 -71t-2 -59q0 -30 0.5 -59.5t0.5 -58.5q1 -20 -4 -26t-24 -10q-10 -2 -16 -2q-27 1 -53.5 1.5t-53.5 2.5q-11 1 -22.5 3.5t-22.5 4.5q-15 4 -15 22v8t1 8q6 61 0 123q-2 18 -0.5 36t1.5 36q-1 45 -1.5 90.5t-1.5 90.5v57.5t1 57.5q2 39 15 73
q11 28 32 46.5t47 29.5q19 8 38 4.5t35 -17.5q12 -11 21 -23.5t14 -28.5q7 -25 11 -50t4 -51q-1 -63 -1.5 -124.5t-0.5 -113.5zM187 180q1 49 1 97.5t1 97.5v137q-2 49 -13 95q-4 20 -20 37q-11 11 -21 13t-24 -5q-17 -8 -29 -20t-24 -25q-5 -7 -5 -15q-2 -15 -3 -30.5
t-1 -30.5q-1 -40 -0.5 -79t0.5 -79v-232q0 -17 1 -34.5t-1 -34.5q-1 -11 -1 -17.5t3 -9.5t9.5 -5t17.5 -4q5 -1 9.5 -1h9.5h67q12 0 16 4t6 16v13q0 28 1 56t0 56z" />
    <glyph glyph-name="o" unicode="o" horiz-adv-x="211" 
d="M7 142q4 33 3 66t-4 66q-4 55 25 103q14 22 33.5 30t42.5 10q4 1 8.5 -2t7.5 -6q5 -6 10.5 -13t10.5 -14q12 -14 16 -31t5 -35v-55.5t-1 -55.5q0 -16 -2 -31.5t-3 -31.5q-1 -15 -1.5 -30t0.5 -30q0 -15 1 -30.5t2 -30.5q2 -22 -20 -22q-51 0 -102 3q-18 1 -24 6.5
t-6 23.5q-2 28 -1.5 55.5t-0.5 54.5zM130 159q1 27 2.5 50t0.5 45q0 23 -1.5 46t-3.5 46q-2 13 -13 24.5t-24 13.5t-19.5 -5.5t-12.5 -16.5q-19 -27 -21 -61q-1 -20 0.5 -38.5t0.5 -38.5q0 -30 -1.5 -60t-1.5 -61q-1 -15 0 -30l2 -30q0 -14 13 -14l30 -2t30 1q19 1 19 24
v107z" />
    <glyph glyph-name="p" unicode="p" horiz-adv-x="195" 
d="M18 -116v66t-2 66q-2 47 -2.5 93.5t0.5 93.5q1 19 -0.5 37t-2.5 37q0 18 0.5 36.5t0.5 36.5l-3 42q0 5 -0.5 9.5t0.5 9.5q1 8 6.5 12.5t13.5 2.5q29 -8 54 -20.5t42 -38.5q11 -19 16 -39t6 -42q2 -14 2 -28.5v-29.5v-77t-1 -78q0 -14 -0.5 -26.5t-1.5 -26.5
q-2 -14 -7 -18t-19 -4q-15 1 -29.5 2t-28.5 1q-11 0 -14 -3t-3 -14q1 -24 1.5 -47.5t1.5 -47.5q0 -14 -1 -28.5t-2 -28.5v-24q-2 -14 -13 -14q-5 1 -9 3.5t-6 6.5q-2 5 -2.5 11t-0.5 12l6 57h-2zM44 390q-1 -20 -1 -38v-36v-143q-1 -28 -0.5 -55t0.5 -55q0 -5 0.5 -8.5
t1.5 -7.5q2 -15 17 -17q8 0 16 -0.5t16 -0.5q10 0 13.5 3t5.5 14q1 3 1 10q4 46 3.5 91t-1.5 91q-1 12 -1 23.5t-1 23.5q0 31 -14 61q-17 36 -56 44z" />
    <glyph glyph-name="P" unicode="P" horiz-adv-x="250" 
d="M50 183q-1 -22 -2.5 -43t-1.5 -43q0 -18 1 -36l2 -36q0 -22 -17 -24q-11 -1 -17 6t-5 18q3 38 4.5 76t-0.5 76q-1 7 -1.5 13.5t0.5 13.5q2 28 0 55t-6 55q-1 8 -1 15v14q1 60 2 118.5t2 118.5q0 39 -3 78q-1 20 16 31q11 7 20 6q39 -11 72.5 -30t51.5 -60q9 -19 12 -39.5
t4 -41.5q6 -132 0 -263q-1 -15 0.5 -29.5t-0.5 -29.5q-3 -16 -7 -21t-21 -5h-46.5t-46.5 7q-2 1 -5 0.5t-7 -0.5zM151 314q-1 35 -1.5 69.5t-1.5 69.5q-1 23 -2 44.5t-2 44.5q-1 28 -13 50.5t-33 39.5q-8 7 -18 11l-20 8q-12 4 -14 -11q-1 -5 -1 -9v-9q-1 -29 -1.5 -57
t-0.5 -56q-1 -11 -0.5 -21.5t0.5 -21.5v-44.5t-1 -44.5q0 -14 -1 -28t0 -28q1 -20 3 -38.5t4 -38.5q1 -15 14 -21q16 -6 32.5 -10t33.5 -2q12 2 15 4.5t4 14.5q0 11 0.5 24.5t1.5 27.5q1 15 2 32z" />
    <glyph glyph-name="q" unicode="q" horiz-adv-x="211" 
d="M153 41q0 -51 2 -101t6 -101q2 -10 0 -18q-2 -7 -7 -10.5t-11 -2.5q-12 3 -12 15q-2 24 -3.5 48.5t-3.5 48.5q-1 17 -1 33t-1 33q-1 10 -3.5 12t-13.5 3q-39 0 -78 3q-19 1 -20 20q0 13 0.5 25.5t0.5 24.5q0 48 -0.5 96.5t0.5 96.5q1 28 8 54.5t23 50.5q13 20 32 30
t42 14q17 2 26 1t12.5 -5.5t4 -12.5t-0.5 -20q-1 -20 0 -41t1 -41q-1 -20 -1.5 -39.5t-1.5 -39.5v-66q0 -28 -0.5 -58.5t0.5 -52.5zM123 166v10q3 41 3.5 80.5t-1.5 80.5l-3 39q-1 14 -15 9q-28 -9 -41 -34q-18 -35 -23.5 -70.5t-3.5 -73.5q2 -28 0 -55q0 -25 -1 -50t-1 -50
t24 -25q9 0 18.5 1t18.5 2q14 2 17.5 5t3.5 17q1 14 1.5 33.5t1.5 37.5q1 21 1 43z" />
    <glyph glyph-name="Q" unicode="Q" horiz-adv-x="264" 
d="M12 149q1 20 2 39t1 39v81t-1 80q-1 27 -2.5 54t-3.5 54q-2 37 3 72t24 68q13 21 29 35t42 18q1 0 2 1q23 10 40 2t31 -25q19 -23 29 -48.5t9 -55.5q0 -33 -1.5 -65.5t-1.5 -65.5q-2 -92 0 -183q1 -29 0.5 -58.5t-2.5 -58.5q-2 -22 0 -44l4 -44q0 -4 0.5 -7.5t0.5 -6.5
q0 -16 -6.5 -25t-24.5 -8q-14 1 -17 -2.5t-5 -17.5q-1 -5 -1 -9.5t-1 -9.5q-3 -12 -17 -12t-16 15q-1 4 -0.5 7.5t0.5 6.5q0 11 -0.5 17t-3.5 8.5t-9 3.5t-17 1q-14 0 -27.5 0.5t-27.5 1.5q-10 0 -14 2q-19 5 -19 23q-1 11 -1 21v21l3 75h-1zM174 533h2q0 8 0.5 16.5
t0.5 16.5q-2 28 -14 50.5t-35 39.5q-12 10 -25 3q-11 -7 -19.5 -14t-14.5 -18q-20 -32 -26.5 -66t-3.5 -70q2 -28 3 -55.5t2 -55.5q1 -32 1 -64t1 -64v-22q-1 -41 -1.5 -81t-1.5 -80v-6q2 -17 6 -21t21 -6q24 -1 48.5 -1.5t48.5 -0.5q9 -1 11.5 2t2.5 13q0 14 -1 26.5
t-1 26.5q1 69 1.5 137.5t1.5 137.5q0 14 -0.5 27t-1.5 26q-1 26 -2.5 51.5t-3.5 51.5z" />
    <glyph glyph-name="R" unicode="R" horiz-adv-x="264" 
d="M114 486q10 -4 17 -7t15 -5q19 -6 29.5 -19.5t18.5 -30.5q3 -8 5.5 -15.5t4.5 -15.5q5 -14 4 -25q-6 -27 -5.5 -54t0.5 -54q0 -40 0.5 -80t1.5 -81v-75v-8.5t-2 -7.5q-6 -8 -15 -10q-5 -1 -8.5 3t-4.5 9t-0.5 10t0.5 10q-1 52 -2 103.5t-2 104.5v52.5t-1 52.5
q-1 15 -1.5 30.5t-3.5 30.5q-8 37 -45 43q-14 2 -27 5.5t-27 5.5q-12 3 -15.5 0.5t-5.5 -13.5q-2 -10 -2 -20v-21q-1 -9 0 -18t0 -18q-4 -84 0 -166q1 -18 -1 -36t-2 -36q0 -24 1 -47.5t2 -47.5q0 -5 -0.5 -11t-2.5 -11q-4 -9 -14 -11q-13 -2 -16 12q-1 5 -0.5 10t0.5 10
l2 12t0 12v54t-1 54q-1 26 -1.5 51.5t-0.5 51.5q0 22 1 44l2 44q1 9 2 17.5t0 16.5q-2 31 -1.5 62t2.5 62q2 32 0.5 64t-2.5 64q-2 14 1 25q2 11 6 15t15 6q7 1 14 0q20 -5 40 -9t40 -11q36 -14 50 -47.5t6 -67.5q-1 -2 -1.5 -3.5t-1.5 -3.5q-4 -42 -47 -50q-5 -1 -9 -4
t-12 -7zM47 499q21 4 40.5 8.5t37.5 12.5q12 6 19 19.5t8.5 29t-3 30t-14.5 22.5q-16 11 -33 19.5t-37 11.5q-13 3 -16 -10q-2 -5 -2.5 -8.5t-1.5 -7.5q-3 -32 -1 -63t3 -64z" />
    <glyph glyph-name="r" unicode="r" horiz-adv-x="204" 
d="M15 268q1 23 5 45t15 42q14 23 33 36t46 14q18 1 40 -2q3 -1 6.5 -5.5t2.5 -6.5q-3 -9 -12 -12q-5 -2 -10.5 -1.5t-10.5 0.5q-26 0 -42 -13.5t-26 -36.5q-6 -16 -8.5 -33t-3.5 -34l-4 -72l-4 -72q-1 -24 -1 -48.5t5 -48.5q1 -2 1 -4t1 -4q0 -18 -14 -21q-7 -1 -12.5 2.5
t-7.5 11.5q-2 13 -4 25.5t-2 25.5q0 29 0.5 57.5t1.5 57.5l1 10.5t1.5 26t1.5 32t1 28.5z" />
    <glyph glyph-name="s" unicode="s" horiz-adv-x="195" 
d="M106 100q-1 25 -1.5 50t-2.5 50q-1 8 -2 15.5t-3 15.5q-9 37 -43 57q-14 9 -26 22q-19 20 -18 45t21 45q33 30 80 24q12 -2 20 -8t10 -14q1 -8 -5.5 -20t-14.5 -15q-7 -3 -14 2q-3 2 -5.5 5t-4.5 7q-7 13 -10.5 14t-16.5 -7q-5 -4 -9.5 -7.5t-8.5 -8.5q-16 -22 3 -43
q6 -7 13 -13.5t15 -10.5q19 -10 29 -25.5t16 -35.5q7 -23 8 -46l2 -46q1 -20 0.5 -39.5t-0.5 -39.5v-22.5t1 -22.5q1 -15 -3 -20t-18 -10q-5 -2 -9 -2.5t-9 -1.5l-48 -3q-9 -2 -18 0q-20 5 -21 23q-1 6 -0.5 12t0.5 12q-2 24 -3 47.5t-3 47.5q-1 8 -1.5 17t-1.5 17
q0 21 15 21q16 2 19 -18q2 -16 3 -31.5t3 -31.5q1 -17 1 -33v-33q1 -11 4 -14t14 -3q17 -1 25.5 -0.5t11.5 4t3 11t1 21.5q1 10 1 20v20h1z" />
    <glyph glyph-name="S" unicode="S" 
d="M14 148q2 16 3 31.5t2 31.5q1 3 1 6t1 5q5 13 16 8q3 -1 6.5 -4.5t3.5 -6.5q2 -21 3.5 -42t-1.5 -41q-3 -17 -2 -32.5t3 -32.5q0 -4 1 -7t2 -7q1 -9 2.5 -14.5t4 -8t7.5 -3t14 -1.5q21 -1 41.5 -1t41.5 -1q14 0 18 3.5t6 16.5q3 14 2 25q-4 30 0 60.5t3 60.5
q0 23 0.5 44.5t1.5 44.5q1 24 -1.5 48.5t-8.5 47.5q-6 27 -21 48.5t-41 35.5q-20 11 -38.5 22t-37.5 23q-20 14 -30.5 32.5t-11.5 38.5t6.5 39t24.5 33q22 18 47.5 24.5t53.5 8.5q19 1 39 0q32 -2 32 -33l-2 -30t-3 -30q-1 -15 -16 -17q-14 0 -16 15q-2 6 -1.5 12.5
t1.5 12.5q0 6 1 12.5t1 12.5q0 14 -13 15q-23 2 -45 -2.5t-42 -16.5q-14 -9 -22 -22t-8.5 -27.5t7 -29.5t24.5 -27q17 -11 35.5 -21t36.5 -21q33 -19 51.5 -47.5t23.5 -65.5q2 -17 3 -33t2 -33q1 -32 1.5 -62.5t-0.5 -61.5q-1 -29 -2.5 -58.5t-3.5 -58.5q0 -11 1 -22l2 -22
q2 -20 -4 -26t-26 -4q-32 2 -63.5 4t-63.5 4h-8.5t-8.5 1q-14 1 -20 6t-7 19q-2 30 -8.5 60t-0.5 61z" />
    <glyph glyph-name="T" unicode="T" horiz-adv-x="306" 
d="M111 123v48t-1 59q0 29 -1.5 57.5t-1.5 57.5v47.5t4 47.5q5 28 3 56t-2 56q0 17 -1 35t-1 35q1 26 -6 33.5t-33 9.5q-11 1 -22.5 1t-22.5 2q-10 1 -20 8q-6 5 -4 12.5t10 9.5q4 2 8 1.5t9 -0.5q38 2 75 -3.5t75 -12.5q11 -2 22 -3.5t22 0.5q24 1 25 -12q2 -8 -3.5 -14.5
t-16.5 -8.5q-8 -1 -15 -0.5t-15 1.5t-16.5 2.5t-16.5 2.5q-10 1 -13.5 -2t-4.5 -14q-2 -13 -3 -25.5t1 -24.5q5 -51 2 -100t-5 -99q-2 -33 -1 -66t1 -66v-63t-1 -63q0 -27 -0.5 -53.5t-1.5 -53.5q0 -24 -18 -22q-20 2 -18 24q2 21 3.5 44.5t4.5 55.5z" />
    <glyph glyph-name="t" unicode="t" horiz-adv-x="203" 
d="M10 320q1 19 2 34.5t1 30.5v124q0 19 -0.5 37.5t-1.5 38.5q0 5 1 8q3 18 16 18q14 -2 16 -19q1 -16 1.5 -31.5t1.5 -30.5v-47.5t1 -47.5q0 -11 3.5 -14.5t15.5 -5.5q8 -1 16 -1t16 -1h9.5t9.5 -1q11 -3 12 -13q0 -14 -13 -16q-17 -2 -34 0q-27 3 -33 -2t-5 -33v-72
q-1 -42 -1 -82.5v-82.5q0 -17 0.5 -34t0.5 -34q0 -14 13 -14h43q8 -1 15 -1.5t14 -2.5q5 -2 8 -6t1 -9q-2 -4 -5.5 -8t-6.5 -4q-24 -1 -48.5 -1t-48.5 2q-20 0 -20 24q-1 19 -1 37.5v38.5l2 48t1 49q0 32 -0.5 63.5t-1.5 60.5z" />
    <glyph glyph-name="U" unicode="U" horiz-adv-x="305" 
d="M11 183q0 32 1 62.5t0 62.5q-2 48 -2.5 95t0.5 95q0 24 -2 48t-3 48q-2 41 0 82q2 19 19 17q13 -1 14 -18q1 -22 1 -43.5v-43.5q1 -38 0.5 -77t1.5 -77q0 -32 1.5 -64.5t3.5 -65.5v-11t-1 -12l-2 -110t-3 -111q0 -3 -0.5 -6t0.5 -5q2 -18 17 -15q21 3 42 1.5t42 -4.5
q14 -2 18.5 2t6.5 16q1 5 1 10v10q0 24 -0.5 48.5t-0.5 48.5q-1 20 -1 41v41q0 25 0.5 49.5t0.5 49.5q-1 52 -1.5 103.5t-0.5 103.5q-1 30 0 60l2 60v5q3 15 18 15q13 -1 16 -13q1 -4 1 -12q1 -34 1.5 -67.5t0.5 -68.5q-1 -32 -3 -63.5t0 -63.5q2 -36 1 -71.5t-2 -70.5
q0 -32 0.5 -65t-2.5 -65q-2 -21 -1 -42.5t2 -42.5q1 -7 2.5 -13t3.5 -12q4 -21 -14 -25q-5 -2 -10 -1.5t-10 0.5q-30 1 -59.5 1.5t-59.5 1.5q-5 1 -8.5 1h-8.5q-15 3 -21 10t-6 23q1 18 1.5 43.5t1.5 48.5q1 27 1 56z" />
    <glyph glyph-name="u" unicode="u" horiz-adv-x="209" 
d="M146 284q-2 -44 -1.5 -86.5t4.5 -86.5q2 -21 1.5 -42.5t4.5 -43.5q3 -10 -3 -17t-17 -7q-17 -1 -34 0t-34 1q-8 1 -15.5 0.5t-15.5 -5.5q-11 -6 -18.5 -0.5t-7.5 18.5q-1 29 -1.5 56.5t-0.5 56.5q1 53 1.5 105t0.5 105q0 14 -1.5 28.5t-3.5 28.5q-1 17 12 21q7 2 13 -1.5
t7 -11.5q3 -14 4.5 -29t2.5 -30q1 -29 1 -59v-59v-33q-1 -28 -1.5 -56t-1.5 -57q0 -16 3 -29q3 -16 17 -17q11 -1 21.5 -1h21.5q13 -1 13 13q-2 25 -2.5 49t-1.5 48q-1 8 -1 15v15q1 48 1.5 95.5t1.5 95.5v14t1 13q3 22 17 20q12 0 15 -19v-25q-1 -21 -1.5 -41.5t-1.5 -41.5
z" />
    <glyph glyph-name="V" unicode="V" horiz-adv-x="264" 
d="M193 241q3 -56 8 -111l10 -110q2 -12 -7 -18q-12 -6 -21 4q-8 10 -17.5 14.5t-19.5 10.5q-39 24 -75 51q-23 17 -33 40.5t-13 48.5q-7 53 -14 104.5t-4 105.5q4 68 1 135t-1 135q0 6 -0.5 11.5t0.5 11.5q2 8 7.5 13t12.5 4q6 -1 10.5 -5.5t4.5 -12.5v-31.5t-2 -31.5
q-3 -35 -3.5 -69.5t4.5 -69.5q0 -4 0.5 -8t0.5 -9q-6 -49 -3 -97.5t9 -97.5q2 -17 2.5 -33t4.5 -32q4 -19 10 -37t12 -37q5 -9 13 -15q16 -11 32 -21t33 -20q16 -11 16 8q1 14 1.5 26.5t-1.5 25.5q-5 40 -7.5 79.5t-4.5 79.5q-4 63 -4.5 126t0.5 127q1 34 0 67t-1 67
q0 5 -0.5 11t0.5 12q3 15 18 15q12 1 17 -12q3 -8 3 -17v-216l-0.5 -24.5t-0.5 -59t0.5 -72.5t1.5 -66z" />
    <glyph glyph-name="v" unicode="v" horiz-adv-x="222" 
d="M41 147q2 -33 19 -56t42 -43q8 -4 12 -5q12 -3 12 8q-1 16 -1 32v33q-2 63 -4 124.5t-4 124.5q-2 9 0 19q1 19 14 20q14 2 15 -19q1 -11 1.5 -21.5t0.5 -21.5q0 -16 -1 -31.5t0 -31.5q0 -13 1.5 -25.5t2.5 -26.5q1 -8 1.5 -15t-1.5 -15q-3 -21 -1 -42l4 -42q1 -9 0.5 -18
t0.5 -17q2 -15 3.5 -30t3.5 -30q1 -7 0 -12t-6 -10q-10 -6 -23 0q-20 11 -40 19.5t-35 25.5l-20 24t-19 26q-10 15 -11 33t-1 36q-1 35 -0.5 71t0.5 71q1 20 0.5 41t-0.5 41q0 7 1 13.5t3 13.5q3 11 15 9q11 0 14 -10q2 -5 2 -14q1 -32 1 -64v-64l-0.5 -13.5t-1 -32
t-0.5 -39.5v-36z" />
    <glyph glyph-name="W" unicode="W" horiz-adv-x="389" 
d="M172 102q-9 -14 -17.5 -27t-18.5 -27q-13 -18 -30.5 -28t-37.5 -17q-39 -14 -41 30q-2 39 -2.5 78.5t-2.5 78.5q0 17 -3 34t-4 34q-2 43 -2.5 85t-1.5 84v175q0 9 -1.5 17.5t-2.5 16.5q0 20 3 40q1 8 6 11.5t12 3.5q11 0 18 -13q1 -2 1 -6q2 -19 3 -38t1 -39
q1 -33 0.5 -65.5t-0.5 -65.5v-21.5t-2 -21.5q-8 -36 -6.5 -71.5t8.5 -70.5q0 -3 0.5 -6t0.5 -6q3 -51 6 -101t6 -101q0 -8 1 -12q1 -6 5 -8t9 2q17 11 30 26.5t19 35.5q6 22 11 44.5t4 45.5q-2 23 0 46q0 24 21 26q19 0 22 -26q1 -15 2 -30.5t2 -31.5q0 -41 27 -74
q14 -18 29.5 -35t31.5 -34q2 -2 4.5 -3.5t6.5 -3.5q5 18 4.5 35t-1.5 34q-2 26 -2.5 51.5t1.5 51.5q2 32 2.5 64.5t0.5 64.5v75t-2 74q-2 30 -4.5 60t-4.5 60l-3 63q0 8 2 14t9 11q8 6 16 3.5t11 -12.5q2 -4 2 -8q-4 -20 0.5 -39.5t6.5 -39.5q3 -22 5 -43t3 -43v-123
t-1 -123q-1 -23 -2.5 -44.5t-1.5 -44.5q0 -36 1 -71.5t2 -71.5q1 -6 0 -13t-4 -12q-15 -30 -47 -14q-15 8 -27.5 18.5t-23.5 23.5l-30 34t-29 34z" />
    <glyph glyph-name="w" unicode="w" horiz-adv-x="333" 
d="M150 42l1.5 -12t0.5 -7q-2 -29 -28 -22q-29 10 -54 25.5t-38 46.5q-8 20 -15.5 40.5t-9.5 42.5q-1 8 -1 16t-1 16q0 48 -0.5 96t-0.5 96q0 7 0.5 13.5t1.5 12.5q4 14 16 11q4 -1 7 -4.5t6 -6.5q2 -2 2 -8q0 -17 0.5 -34t0.5 -34q0 -33 0.5 -66t-0.5 -65v-37.5t7 -35.5
q4 -11 7.5 -21.5t8.5 -20.5q13 -26 41 -40q13 -7 15 8q1 8 1 17v17q-1 8 -1.5 16t-0.5 16q3 32 2.5 63t-2.5 63q-1 14 3 29q2 13 15 11q12 -1 12 -15q2 -34 3.5 -68t-0.5 -69q-1 -25 13 -47q11 -19 25.5 -33.5t34.5 -24.5q14 -7 14 9q1 64 1.5 127t0.5 127q1 16 0.5 32
t0.5 33v13.5t2 13.5q3 17 16 13q12 -3 12 -15q0 -17 0.5 -34.5t-0.5 -34.5q0 -31 -1 -61.5t-1 -62.5q0 -42 0.5 -83t0.5 -83q1 -32 -30 -28q-19 2 -35 10.5t-31 20.5q-8 5 -22 18z" />
    <glyph glyph-name="X" unicode="X" horiz-adv-x="292" 
d="M107 469l-30 -30q-23 -23 -23 -54q-1 -46 -4 -91t1 -92q2 -6 0 -14q-6 -39 -4 -78t0 -79v-11q0 -14 -12 -17q-15 -3 -20 8q-7 16 -7 29q1 37 3 73.5t3 72.5q1 20 0 38.5t-1 37.5q0 26 -0.5 51t-0.5 51q1 29 9.5 55t29.5 48q2 2 4.5 5t4.5 5q7 9 7 12t-6 13
q-10 14 -20 27.5t-19 27.5q-9 15 -12 34q-2 15 -2 30.5t-1 31.5q0 6 4 16q3 15 18 14q18 -2 19 -18q2 -11 3.5 -23.5t-0.5 -23.5q-3 -32 11.5 -54t31.5 -44q7 -8 15 0q21 20 39.5 41.5t20.5 53.5q1 12 1 23.5t2 23.5q1 7 3.5 12.5t10.5 7.5q10 2 17.5 -3t7.5 -16
q0 -24 -2.5 -47.5t-10.5 -46.5q-5 -11 -11 -21.5t-15 -18.5q-5 -5 -10.5 -9.5t-10.5 -9.5q-12 -13 -12 -17t11 -17q60 -66 60 -159q0 -36 1.5 -72t1.5 -72q0 -34 -3 -70q-2 -20 -2.5 -40.5t5.5 -40.5q4 -11 -4 -24q-8 -12 -21 -9t-15 18l-3 54v14t1 14q5 46 3 91.5t-3 91.5
q-1 11 -1 22.5v22.5q2 34 -8.5 64t-28.5 58q-5 8 -11.5 14.5t-14.5 15.5z" />
    <glyph glyph-name="x" unicode="x" horiz-adv-x="250" 
d="M134 293q5 -5 8 -10t7 -10q11 -14 16.5 -29.5t4.5 -34.5q0 -11 2 -22t3 -22q2 -24 2.5 -48.5t2.5 -48.5q1 -14 1.5 -26.5t1.5 -26.5q0 -3 1 -7t-1 -6q-2 -4 -5.5 -7.5t-8.5 -5.5q-3 -1 -8 1.5t-7 5.5q-6 10 -6 23q-2 17 -3.5 35t-0.5 36q2 26 -1.5 51t-5.5 51
q0 5 -0.5 10.5t-0.5 10.5q-1 5 -1 10.5t-2 10.5q-3 9 -8 18.5t-15 11.5t-16.5 -5.5t-13.5 -15.5q-14 -16 -21 -34t-9 -38q-5 -37 -5 -73.5t2 -73.5q1 -21 -10 -24q-16 -2 -22 16q-3 9 -3 18q0 38 -0.5 75t4.5 75q3 19 9.5 35.5t20.5 30.5q9 8 16 17.5t15 19.5q-8 8 -16 14.5
t-16 13.5q-20 17 -24 38t-2 44q0 4 4 12q3 5 8 7.5t10 0.5q9 -6 11 -14t1.5 -15.5t0.5 -15.5q1 -23 15 -35t31 -21q6 -2 12 2q12 9 21 21t10 29v11t2 12q2 17 17 17q6 0 10.5 -5t4.5 -13q1 -23 -4 -43t-22 -37q-4 -3 -8 -7.5t-9 -9.5z" />
    <glyph glyph-name="Y" unicode="Y" horiz-adv-x="277" 
d="M235 610q-1 -10 -2 -19t-3 -18q-12 -70 -77 -100q-13 -6 -13 -19q0 -7 -0.5 -13t0.5 -13q4 -72 5 -144.5t-2 -145.5q-1 -28 -1.5 -56t-5.5 -56q-1 -2 -1 -5t-1 -6q-1 -6 -3.5 -10.5t-9.5 -4.5q-8 -1 -14 3.5t-7 11.5q-1 5 -0.5 9.5t0.5 9.5q1 11 2.5 20.5t1.5 19.5
q2 61 2.5 122t-1.5 123q-1 35 -2.5 70t-3.5 70q-2 17 -15 21q-45 15 -60.5 48t-17.5 76q-1 8 -2 16.5t0 16.5q2 25 7 45q4 17 21 14q17 -5 15 -23q-1 -20 -2 -38.5t-2 -37.5q0 -7 1 -14t3 -14q16 -65 83 -64q17 1 30 11t20 25q13 25 18.5 51t-5.5 54q0 2 -0.5 3t-0.5 3
q-3 19 13 24q18 5 25 -13q1 -4 2 -7t1 -7q1 -10 1.5 -19.5t0.5 -19.5z" />
    <glyph glyph-name="y" unicode="y" horiz-adv-x="219" 
d="M39 144q0 -9 1 -17.5t2 -16.5q4 -31 22.5 -49t43.5 -31q14 -7 17 8q1 7 1 13.5v13.5q2 45 3 90.5t2 90.5q1 26 0.5 51.5t0.5 51.5v34q1 3 1 5.5t1 5.5q1 13 15 15t16 -17q1 -4 1 -11q-1 -45 -1.5 -88t-2.5 -88q-1 -45 -2.5 -88.5t-1.5 -88.5t1.5 -90.5t2.5 -90.5v-17.5
t-2 -17.5q-2 -15 -18 -15q-15 1 -15 18q-1 31 -1 62v62v12t-1 11q-1 8 -1 15t-2 14q-4 8 -12 7t-14 3l-22 14t-22 15q-27 18 -36 44.5t-11 56.5q-2 45 2.5 89.5t8.5 89.5q2 22 2 43.5t1 43.5q0 4 -0.5 7.5t0.5 7.5q2 13 12 12q10 0 16 -6q5 -7 5 -17q2 -19 3 -37t-2 -37
q-2 -15 -3 -31t-3 -32l-1.5 -13t-2.5 -32t-2.5 -39.5t-1.5 -35.5z" />
    <glyph glyph-name="Z" unicode="Z" horiz-adv-x="290" 
d="M131 687l66 -3q20 -1 29 -12t9 -45q0 -23 -9 -42t-23 -36t-32.5 -32t-37.5 -29q-36 -26 -58 -61t-24 -80q-2 -37 -3.5 -73.5t-1.5 -73.5q0 -38 2.5 -76t4.5 -76q1 -9 4 -12t11 -3q7 0 14 1t14 1q23 0 44.5 -2.5t43.5 -2.5q15 0 15 15q-1 23 -4 47t-3 49q0 11 6 18t14 7
t13 -9t8 -22.5t4 -29t1 -28.5q0 -11 -0.5 -19t-0.5 -10v-13.5t1 -13.5q0 -16 -6.5 -22t-21.5 -6q-35 0 -71 2.5t-72 2.5q-7 0 -17 1t-19.5 4t-16 8.5t-6.5 14.5q0 12 2 24.5t2 24.5q0 30 -2.5 60.5t-2.5 60.5q0 42 2 83t4 83q1 36 16.5 63.5t38.5 50.5t50.5 44.5t52.5 47.5
q23 25 23 62q0 14 -17.5 17t-40.5 3h-40q-26 0 -45 4t-19 20q0 9 15 11.5t25 2.5q13 0 25 -1t25 -1q2 0 5.5 -0.5t3.5 1.5z" />
    <glyph glyph-name="z" unicode="z" horiz-adv-x="236" 
d="M80 379q-11 2 -22.5 2.5t-22.5 1.5q-8 1 -17 5q-11 8 -7 18q6 8 13 10q16 0 32 0.5t31 -1.5q17 -3 33 -3.5t33 0.5q15 1 20.5 -4t5.5 -20q0 -17 -5 -32t-16 -29q-13 -16 -28 -29t-34 -21q-32 -14 -44 -37.5t-10 -56.5q1 -12 0 -24.5t0 -25.5q0 -21 0.5 -42t1.5 -42
q1 -11 4.5 -14t14.5 -3q14 -1 27.5 -0.5t27.5 -0.5q8 0 15.5 -0.5t14.5 -2.5q9 -2 11 -12q0 -3 -2.5 -7t-5.5 -6q-15 -7 -29 -8q-9 -1 -18 0l-18 2q-8 0 -16 -0.5t-16 -0.5h-9t-9 1q-12 2 -16.5 6t-6.5 16q-3 16 -3 33q-2 42 -3 83.5t3 83.5q4 50 52 75q6 4 12.5 7t12.5 6
q24 13 42 36q6 6 9 15q8 16 -10 17q-12 2 -24 2.5t-24 1.5z" />
    <glyph glyph-name="guillemotleft" unicode="&#xab;" horiz-adv-x="292" 
d="M101 360q-2 -2 -3.5 -5t-3.5 -6q-10 -14 -20 -26.5t-20 -26.5q-6 -8 -5.5 -14t8.5 -13q5 -5 11.5 -8t12.5 -7q5 -4 10 -7t9 -8q7 -7 4 -14t-12 -9q-11 0 -18 4q-11 8 -21.5 17t-21.5 17q-9 7 -15 15q-10 11 -10 16.5t10 16.5q11 14 22.5 27.5t22.5 27.5q5 5 10 9.5
t10 6.5q7 4 13.5 -0.5t6.5 -12.5zM151 358q5 -4 9 -6t6 -6q4 -5 1.5 -9t-6.5 -6q-11 -6 -17.5 -14.5t-13.5 -17.5t-6 -13t9 -11q5 -5 11 -9t12 -9l4.5 -4.5l4.5 -4.5q2 -5 3 -9t-1 -8q-2 -6 -7.5 -7t-10.5 1q-3 1 -5.5 3t-5.5 4q-11 9 -21 17.5t-21 17.5q-4 3 -7 6t-5 8
q-2 2 -1.5 7t2.5 7q9 11 19 22.5t21 22.5q5 5 12 9t14 9z" />
    <glyph glyph-name="guillemotright" unicode="&#xbb;" horiz-adv-x="261" 
d="M121 306q-3 5 -6 9.5t-7 9.5q-8 8 -15.5 16t-15.5 16t-11 12q-7 11 2 16q8 6 15 2q4 -2 7.5 -4.5t7.5 -5.5q13 -14 25.5 -27t25.5 -27q9 -10 9.5 -18t-8.5 -19q-11 -15 -23.5 -30t-24.5 -29q-9 -11 -21 -11q-8 0 -12.5 6t0.5 14q1 2 2.5 4t3.5 4q10 11 19.5 22t18.5 22
q2 4 4 8.5t4 9.5zM27 224q-11 1 -15.5 8t0.5 15q4 5 8 10.5t8 10.5l7.5 7.5t6.5 8.5q9 14 8.5 20t-12.5 18l-14 12t-13 13q-4 4 -5.5 8.5t3.5 7.5q6 6 16 6q5 -1 13 -9q11 -9 21 -18l20 -18q8 -8 9.5 -13.5t-2.5 -14.5q-8 -19 -20 -34.5t-25 -30.5q-3 -3 -7 -4t-7 -3z" />
    <glyph glyph-name="dollar" unicode="$" horiz-adv-x="236" 
d="M169 522q2 -15 4 -30.5t2 -30.5q1 -23 0 -45l-2 -44v-13.5t2 -12.5q4 -15 1.5 -29t-6.5 -28q-4 -19 -24 -18q-10 0 -20 3q-19 5 -37.5 1t-37.5 -6q-4 0 -6 -5q-5 -11 1 -24.5t17 -16.5q9 -2 18 -3t18 -3q15 -2 18 -15q3 -8 -2.5 -14.5t-13.5 -4.5q-10 2 -19.5 4t-19.5 4
q-16 3 -15 -14q6 -40 2 -79.5t-1 -80.5q0 -4 -2 -9t-5 -7q-4 -2 -9 -1t-9 3q-3 1 -5 4.5t-2 6.5q-1 5 -0.5 10t1.5 10q3 47 1.5 93.5t-6.5 93.5q-2 14 -1.5 27t0.5 27q-2 49 -3 98t-2 99q-1 47 -1 93.5v94.5v11q2 14 9.5 21t20.5 3q38 -11 71 -25q20 -9 31 -25t18 -35
q8 -21 12 -43t2 -45zM41 437v-61t1 -52q0 -14 5 -18.5t19 -4.5q15 1 30.5 2.5t31.5 2.5q11 2 12 13v11q0 42 0.5 84.5t-1.5 84.5q-1 26 -4 51.5t-13 50.5q-16 41 -57 53q-16 5 -19.5 3t-4.5 -18v-45q-1 -21 -2 -41.5t-1 -40.5q1 -22 2 -42t1 -33z" />
    <glyph glyph-name="underscore" unicode="_" horiz-adv-x="250" 
d="M31 -14q-11 0 -16 2t-9.5 5t-3.5 9q1 7 5.5 9t9.5 3q8 0 16 -0.5t16 -0.5q14 1 38.5 1t38.5 1q22 2 22 -12q0 -7 -5.5 -12.5t-13.5 -5.5h-15h-18.5h-18.5h-15h-12q-5 0 -10 0.5t-9 0.5z" />
    <glyph glyph-name="at" unicode="@" horiz-adv-x="347" 
d="M157 139q-4 -2 -7 -4l-6 -4q-4 -2 -7 -5.5t-7 -5.5q-8 -5 -16 -8.5t-18 1.5t-11 13.5t-1 16.5l-2 36l-2 36q-1 16 0 31.5t7 30.5q8 23 24.5 36t36.5 22q27 11 13 38q-3 5 -8 6.5t-10 2.5h-13.5t-12.5 1q-15 2 -15 16q-1 5 3.5 10t11.5 5h27t25 -3q17 -5 24.5 -18t9.5 -29
q6 -40 -1 -79q-6 -35 -6.5 -69.5t1.5 -69.5q1 -5 2 -9t7 -5q12 -3 17 12q5 14 5.5 27.5t-0.5 27.5q-1 8 -1 16.5v17.5q2 41 3 81.5t3 81.5q1 14 -2 29q-1 17 -17 20q-17 2 -33 3t-33 1q-18 -1 -36.5 -3t-36.5 -4q-5 -1 -9 -2t-9 -2q-13 -3 -13 -18q-1 -5 -1 -15
q0 -55 0.5 -109.5t1.5 -109.5v-124q0 -17 5 -22.5t23 -6.5q21 -1 42 -0.5t42 -1.5q17 -1 35 -3.5t35 -4.5q5 -1 10 -3t5 -9q1 -7 -3.5 -12.5t-11.5 -7.5q-5 -1 -9 -0.5t-9 1.5l-30 4t-30 2q-24 0 -48.5 1.5t-48.5 5.5q-41 5 -41 46q-1 21 -1.5 42t-0.5 42q1 24 1.5 48.5
t0.5 48.5q0 40 -1 79.5t-1 78.5q0 31 6 60q7 31 39 27q27 -4 54 -1t54 3q21 -1 42 -3l42 -4q18 -3 18 -23q2 -17 3.5 -33t0.5 -32q-1 -37 -2.5 -73t-3.5 -72q-1 -20 -0.5 -41t-0.5 -41q-1 -8 -2 -15.5t-3 -15.5q-4 -21 -25 -24q-25 -5 -47 -5q-11 0 -16 4.5t-8 15.5
q-1 5 -1.5 10t-1.5 12zM165 308q-20 -5 -30 -17t-15 -30q-5 -19 -4.5 -38t1.5 -38q1 -6 1.5 -13t2.5 -15q16 11 25.5 23t11.5 29q2 20 4 41l4 42q1 5 -1 16z" />
    <glyph glyph-name="percent" unicode="%" horiz-adv-x="305" 
d="M211 476q-5 -11 -7.5 -20.5t-7.5 -17.5q-11 -18 -17 -37.5t-7 -40.5q0 -6 -4 -14q-11 -29 -21.5 -57t-15.5 -59q-2 -9 -5.5 -17.5t-6.5 -17.5q-5 -15 -10.5 -30.5t-11.5 -31.5q-4 -11 -8 -20.5t-7 -20.5q-6 -20 -11.5 -38.5t-10.5 -37.5q-2 -8 -5.5 -14t-11.5 -7
q-9 0 -17 6q-9 12 1 27q5 8 8 16q14 40 28 78.5t28 78.5q8 26 14 52t14 52q11 38 22.5 76t30.5 73q4 7 6.5 14.5t5.5 14.5q2 5 6.5 7t9.5 -1q3 -2 5.5 -5.5t5.5 -7.5zM60 357q-23 0 -39 14t-15 32q1 26 14 46.5t41 27.5q13 3 20.5 -0.5t14.5 -14.5q6 -9 11.5 -18.5
t7.5 -21.5q2 -11 0 -19.5t-10 -16.5q-10 -11 -21.5 -19.5t-23.5 -9.5zM84 413q1 22 -20 28q-13 4 -21 -15q-2 -5 -3.5 -10t-2.5 -10q-2 -12 7 -18.5t20 -1.5q18 9 20 27zM237 43q-3 -5 -5 -10.5t-5 -10.5q-9 -11 -23.5 -16t-29.5 -4t-28.5 8t-21.5 20t-6.5 27.5t12.5 25.5
q14 14 31 25q18 12 36 5t24 -27q2 -5 3.5 -8.5t3.5 -8.5l4 -12t5 -14zM203 57q-1 2 -2 6.5t-3 9.5q-7 18 -26 10q-11 -5 -17 -15.5t-4 -22.5q2 -6 4 -10q5 -5 16 -7t19 1q8 4 10.5 10.5t2.5 17.5z" />
    <glyph glyph-name="numbersign" unicode="#" horiz-adv-x="319" 
d="M44 201q6 0 12.5 -0.5t13.5 0.5q11 1 14.5 4.5t5.5 14.5q2 14 3 27.5t3 27.5q2 15 6 28q5 18 19 14q14 -3 11 -21q-2 -12 -4 -23.5t-4 -23.5q-1 -7 -1.5 -14t-0.5 -15q0 -14 13 -17q8 -2 14.5 2t8.5 12q2 11 3 22t3 22q2 8 3 16.5t4 16.5q2 9 12 13q7 3 13 -2.5t4 -14.5
q-2 -11 -4 -20.5t-4 -20.5q-1 -5 -2 -9t-1 -9q-2 -19 0.5 -22.5t22.5 -3.5q11 0 18 -4t6 -11q0 -7 -6.5 -11t-17.5 -3q-2 0 -10 2q-27 3 -30 -24q-1 -15 3.5 -20t19.5 -7h9.5t8.5 -1q17 -5 14 -17q-1 -5 -6.5 -9t-11.5 -4q-5 1 -9 2t-9 2q-16 3 -23.5 -2t-9.5 -20
q-2 -11 -2 -21t-1 -21q-1 -6 -1.5 -12t-2.5 -12q-5 -15 -18 -11q-13 3 -11 19q2 14 4 28.5t4 28.5q2 8 1 13q0 6 -5 8q-9 5 -18.5 1t-13.5 -13q-5 -12 -7 -28q-2 -12 -3.5 -24t-3.5 -23q0 -8 -3 -10q-3 -3 -7 -5.5t-8 -2.5q-3 1 -7 4.5t-5 7.5q-2 5 -1 10t3 10
q3 15 6.5 29.5t6.5 29.5q2 9 -1 12t-11 4q-6 1 -12.5 1t-13.5 1q-9 0 -18 3q-2 2 -4.5 5t-2.5 5q0 3 3 5.5t5 3.5q4 2 8.5 2.5t9.5 1.5h16q22 -1 27.5 4.5t7.5 27.5q0 8 -2.5 10.5t-11.5 3.5l-42 3q-6 2 -12.5 3.5t-8.5 9.5q-2 11 23 11h11h8zM147 158q1 11 -2 15t-9 5
q-13 2 -18 -1t-9 -16q-2 -6 -3 -10q-1 -6 -2.5 -13t4.5 -11q5 -2 12 -1.5t13 2.5q3 1 5.5 4.5t4.5 6.5q2 6 2.5 11.5t1.5 7.5z" />
    <glyph glyph-name="ampersand" unicode="&#x26;" horiz-adv-x="306" 
d="M61 485q-11 9 -21 15q-20 12 -27.5 30t-6.5 39q1 13 3 26t7 24q13 33 39.5 52.5t64.5 23.5q16 2 32 -1t33 -5q3 0 5.5 -1t5.5 -3q5 -3 5.5 -8t-4.5 -9q-18 -12 -35 -9q-5 1 -9 2l-8 2q-28 6 -52.5 -5.5t-36.5 -37.5q-8 -16 -13 -33t-1 -36q3 -24 25 -32q10 -4 20 -6.5
t21 -6.5q7 -2 14 -4.5t8 -10.5q2 -9 -5 -12.5l-13 -6.5q-32 -12 -47 -35.5t-18 -54.5q-2 -27 -4.5 -54.5t0.5 -54.5q2 -16 1 -31.5t0 -31.5q0 -25 1 -49t1 -48q1 -11 0.5 -20.5t-0.5 -20.5q0 -5 0.5 -11t1.5 -11q2 -15 15 -15q24 0 47.5 -3.5t47.5 0.5q38 6 38 42
q0 34 -2.5 67.5t-13.5 65.5q-3 8 -7 16t-10 14q-9 8 -20 11.5t-25 -2.5q-9 -4 -22 -6t-18 10q-3 6 -1 10t6 8q5 5 9 9.5t9 9.5q8 9 17 15.5t21 8.5q4 1 7 1.5t7 1.5q23 2 39 13.5t29 29.5q7 10 16 15q10 3 17 -3t5 -16q-3 -11 -12 -22q-15 -19 -35 -29.5t-43 -16.5
q-2 -1 -4.5 -2.5t-4.5 -3.5q2 -2 3.5 -5t3.5 -5q5 -5 10.5 -7.5t10.5 -7.5t10.5 -10t7.5 -12q11 -26 18.5 -54t7.5 -57q0 -17 0.5 -34.5t0.5 -34.5q0 -20 -12.5 -34t-32.5 -16q-26 -3 -51.5 -2t-51.5 3q-10 1 -20 0.5t-20 -0.5q-17 1 -22 5t-7 21q-2 14 -3 27.5t0 27.5
q2 37 0 74t-4 75t-2 76t6 76q5 25 14 48t28 42q2 2 3 4.5t3 5.5z" />
    <glyph glyph-name="quotedblleft" unicode="&#x201c;" horiz-adv-x="207" 
d="M101 360q-2 -2 -3.5 -5t-3.5 -6q-10 -14 -20 -26.5t-20 -26.5q-6 -8 -5.5 -14t8.5 -13q5 -5 11.5 -8t12.5 -7q5 -4 10 -7t9 -8q7 -7 4 -14t-12 -9q-11 0 -18 4q-11 8 -21.5 17t-21.5 17q-9 7 -15 15q-10 11 -10 16.5t10 16.5q11 14 22.5 27.5t22.5 27.5q5 5 10 9.5
t10 6.5q7 4 13.5 -0.5t6.5 -12.5zM151 358q5 -4 9 -6t6 -6q4 -5 1.5 -9t-6.5 -6q-11 -6 -17.5 -14.5t-13.5 -17.5t-6 -13t9 -11q5 -5 11 -9t12 -9l4.5 -4.5l4.5 -4.5q2 -5 3 -9t-1 -8q-2 -6 -7.5 -7t-10.5 1q-3 1 -5.5 3t-5.5 4q-11 9 -21 17.5t-21 17.5q-4 3 -7 6t-5 8
q-2 2 -1.5 7t2.5 7q9 11 19 22.5t21 22.5q5 5 12 9t14 9z" />
    <glyph glyph-name="quotedblright" unicode="&#x201d;" horiz-adv-x="222" 
d="M121 306q-3 5 -6 9.5t-7 9.5q-8 8 -15.5 16t-15.5 16t-11 12q-7 11 2 16q8 6 15 2q4 -2 7.5 -4.5t7.5 -5.5q13 -14 25.5 -27t25.5 -27q9 -10 9.5 -18t-8.5 -19q-11 -15 -23.5 -30t-24.5 -29q-9 -11 -21 -11q-8 0 -12.5 6t0.5 14q1 2 2.5 4t3.5 4q10 11 19.5 22t18.5 22
q2 4 4 8.5t4 9.5zM27 224q-11 1 -15.5 8t0.5 15q4 5 8 10.5t8 10.5l7.5 7.5t6.5 8.5q9 14 8.5 20t-12.5 18l-14 12t-13 13q-4 4 -5.5 8.5t3.5 7.5q6 6 16 6q5 -1 13 -9q11 -9 21 -18l20 -18q8 -8 9.5 -13.5t-2.5 -14.5q-8 -19 -20 -34.5t-25 -30.5q-3 -3 -7 -4t-7 -3z" />
    <glyph glyph-name="less" unicode="&#x3c;" horiz-adv-x="231" 
d="M181 419q0 -4 -6 -10q-9 -7 -18 -13.5t-17 -14.5q-8 -6 -14.5 -12.5t-14.5 -12.5l-27 -24q-4 -3 -12 -11q-7 -5 -14 -10.5t-14 -11.5q-5 -4 -4.5 -5.5t5.5 -4.5q11 -6 22 -11q2 -2 4 -2q11 -1 22 -9l27 -15l39 -21q5 -2 10 -4.5t10 -4.5q3 -1 9 -1q11 2 13 -10
q2 -11 -5 -16q-3 -3 -7.5 -3.5t-9.5 3.5q-13 9 -27 15t-28 13q-22 13 -41 23q-8 4 -15.5 6t-15.5 6q-11 5 -22.5 10.5t-20.5 15.5q-13 13 3 22q8 5 16.5 10.5t16.5 11.5q5 3 9.5 7.5t9.5 8.5q6 5 12 11t13 11q11 10 22 19.5t22 19.5q6 6 12.5 12t13.5 12q8 7 16 2
q6 -5 6 -12z" />
    <glyph glyph-name="greater" unicode="&#x3e;" horiz-adv-x="239" 
d="M60 215q-7 -2 -10 4.5t0 11.5q2 3 4.5 6.5t5.5 5.5q7 5 12.5 11t12.5 11q15 13 30 25.5t30 24.5q3 3 6 5l6 4q10 8 -1 13q-3 2 -6 3t-6 3q-9 5 -18 9l-18 8q-15 6 -28.5 14t-27.5 16q-6 3 -12 5.5t-12 4.5q-8 3 -16 8q-5 4 -5 12t6 11.5t13 -0.5l16 -8l16 -8
q6 -3 11.5 -6t10.5 -8q1 -1 2 -1.5t2 -1.5q11 -5 21 -10.5t20 -10.5q11 -5 20.5 -9.5t20.5 -9.5l12 -6t11 -7q2 -1 3.5 -2.5l3.5 -3.5q6 -9 -1 -15q-5 -5 -9 -8t-9 -7q-9 -7 -18.5 -13.5t-19.5 -13.5q-7 -5 -13 -11t-13 -12q-11 -10 -20.5 -19.5t-20.5 -19.5q-6 -6 -12 -5z
" />
  </font>
</defs>
</svg>
